Loading...
Error

Гуманитарные науки / Liberal Arts (Джош Рэднор) [2012, драма, комедия, HDRip] VO

Статистика раздачи
Размер:  703 MB   |    Зарегистрирован:  3 года 10 месяцев   |    Скачан:  8 раз

Полного источника не было: 1 год

Сидов:  0  |  0 KB/s  ]   Личеров:  0  |  0 KB/s  ]

* - сиды/пиры с внешних источников

   
 
Автор Сообщение

Garnett Пол:Муж

13-Янв-2013 09:21

Гуманитарные науки / Liberal Arts

Страна: США
Жанр: драма, комедия
Год выпуска: 2012
Продолжительность: 01:37:16
Перевод: Одноголосый закадровый [Kerob]
Субтитры: нет
Режиссер: Джош Рэднор / Josh Radnor
В ролях: Джош Рэднор, Элизабет Олсен, Зак Эфрон, Ричард Дженкинс, Эллисон Дженни, Элизабет Ризер, Джон Магаро, Кейт Бёртон, Роберт Десидерио, Кристен Буш, Али Ан, Нед Донис
Описание: Сюжет повествует о парне тридцати лет и студентке колледжа, которых объединяет взаимная любовь к книгам и музыке, но разница в возрасте мешает их отношениям.

Сценарий: Джош Рэднор / Josh Radnor
Продюсер: Брайс Даль Фарра / Brice Dal Farra, Клод Даль Фарра / Claude Dal Farra, Джесси Хара / Jesse Hara, Лорен Мунш / Lauren Munsch, Джош Рэднор / Josh Radnor
Оператор: Симус Тирни / Seamus Tierney
Композитор: Бен То / Ben Toth
Сборы в США: $327 345
Мировая премьера: 22 января 2012
Качество: HDRip (Исходник BDRip 720p)
Контейнер: AVI
Видео: XviD, 640x272 (2.35:1), 873 kbps, 23,976 fps, 0,209 bpp
Аудио: MP3 / 2.0 / 48 kHz / 128 kbps /
General
Complete name : F:\Gumanitarnie.nauki.2012.L1.HDRip_700.avi
Format : AVI
Format/Info : Audio Video Interleave
File size : 703 MiB
Duration : 1h 37mn
Overall bit rate : 1 010 Kbps
Movie name : RG KikTeam
Writing application : VirtualDubMod 1.5.10.2 (build 2540/release)
Writing library : VirtualDubMod build 2540/release
Copyright : RG KikTeam
Video
ID : 0
Format : MPEG-4 Visual
Format profile : Advanced Simple@L5
Format settings, BVOP : 2
Format settings, QPel : No
Format settings, GMC : No warppoints
Format settings, Matrix : Default (H.263)
Codec ID : XVID
Codec ID/Hint : XviD
Duration : 1h 37mn
Bit rate : 873 Kbps
Width : 640 pixels
Height : 272 pixels
Display aspect ratio : 2.35:1
Frame rate : 23.976 fps
Color space : YUV
Chroma subsampling : 4:2:0
Bit depth : 8 bits
Scan type : Progressive
Compression mode : Lossy
Bits/(Pixel*Frame) : 0.209
Stream size : 607 MiB (86%)
Writing library : XviD 61
Audio
ID : 1
Format : MPEG Audio
Format version : Version 1
Format profile : Layer 3
Mode : Joint stereo
Mode extension : MS Stereo
Codec ID : 55
Codec ID/Hint : MP3
Duration : 1h 37mn
Bit rate mode : Constant
Bit rate : 128 Kbps
Channel(s) : 2 channels
Sampling rate : 48.0 KHz
Compression mode : Lossy
Stream size : 89.1 MiB (13%)
Alignment : Aligned on interleaves
Interleave, duration : 42 ms (1.00 video frame)
Interleave, preload duration : 504 ms
picpicpic

Этот торрент недоступен для скачивания без регистрации, однако доступен по публичной magnet-ссылке (источники с публичных трекеров). Перед использованием ссылки прочтите, пожалуйста Пользовательское соглашение, а также как можно дольше оставайтесь на раздаче! Для того, чтобы скачать сам торрент-файл (который видит больше источников), а также для того, чтобы поблагодарить релизера, вам необходимо зарегистрироваться. Если регистрироваться лень - вы можете также попробовать скачать релиз по нашим партнерским ссылкам ниже.

[underverse.su].t23249.torrent
Трекер: Зарегистрирован   [ 13.01.2013 09:21 ]  

Статус: проверено (by Паукан at 13.01.2013 11:16)
Поблагодарили: пока никто не поблагодарил...
Тип торрента: публичный - доступные источники с открытых трекеров: 
Размер: 703 MB (занимает 0,16 DVDR, для записи нужно 1 болванка DVDR/RW)
 
 
Похожие темы
Форум Тема Автор Торрент Отв. Посл. сооб.
Зарубежное кино [DVDRip, Low-Res HDRip, и т.д.] Гуманитарные науки / Liberal Arts (Джош Рэднор) [2012 г., драма, комедия, HDRip] MVO RG NewCinema
1 | 0

0 | 939

14

25.06.2013 10:37


Яндекс.Метрика powered by Sphinx


В Н И М А Н И Е
Сайт не распространяет и не хранит электронные версии произведений, а лишь бесплатно и без коммерческой выгоды (не требуя взамен платы,
SMS и т.д.) предоставляет доступ к создаваемому пользователями каталогу ссылок на торрент-файлы, которые содержат только списки хеш-сумм.
Убедительная просьба с жалобами обращаться напрямую к пользователю, разместившему торрент файл.

Вверх