Loading...
Error

Пересечение 10-й и Вульф / 10th & Wolf (Роберт Мореско) [2006 г., триллер, драма, криминал, детектив, HDRip] MVO + AVO + Original + Sub (Rus)

Статистика раздачи
Размер:  2,18 GB   |    Зарегистрирован:  3 года 10 месяцев   |    Скачан:  7 раз

Полного источника не было: 22 часа

Сидов:  0  |  0 KB/s  ]   Личеров:  0  |  0 KB/s  ]

* - сиды/пиры с внешних источников

   
 
Автор Сообщение

Доктор Ватсон Пол:Муж

13-Янв-2013 08:30

Пересечение 10-й и Вульф / 10th & Wolf


Год выпуска: 2006
Жанр: триллер, драма, криминал, детектив
Страна: США
Режиссер: Роберт Мореско
В ролях: Джеймс Марсден, Джованни Рибизи, Брэд Ренфро, Пайпер Перабо, Деннис Хоппер, Брайан Деннехи, Лесли Энн Уоррен, Лео Росси, Дэш Майок, Томми Ли
Сюжет фильма:
Томми был еще ребенком, когда убили его отца, одного из главарей мафии Филадельфии. Его брат и кузен остаются верны «семейному делу», но сам Томми решает завязать со своим прошлым и идет служить в армию.

Когда из-за конфликта с командованием ему грозит военный трибунал, агенты ФБР в обмен на свободу предлагают ему вернуться в преступный бизнес и стать тайным осведомителем. Томми предстоит сделать самый трудный выбор: или пойти против закона, или предать брата и друга…

  • Мировая премьера: 21 апреля 2006

Качество видео: HDRip

Продолжительность: 01:43:51
Формат: AVI
Видео: XviD, 720x304 (2.37:1), ~2241 kbps
Аудио #1: русский, многоголосый закадровый [профессиональный], AC3 5.1, ~384 kbps
Аудио #2: русский, одноголосый закадровый [авторский], AC3 2.0, ~192 kbps
Аудио #3: английский, оригинал, AC3 2.0, ~192 kbps
Субтитры: тип: внешние, русский, формат: SRT

Код:

C:\Users\Videos\Peresechenie_10_2.18\Peresechenie_10_2.18.avi
General
Complete name : C:\Users\Videos\Peresechenie_10_2.18\Peresechenie_10_2.18.avi
Format : AVI
Format/Info : Audio Video Interleave
Format profile : OpenDML
File size : 2.18 GiB
Duration : 1h 43mn
Overall bit rate : 3 016 Kbps
Writing application : VirtualDubMod 1.5.10.2 (build 2540/release)
Writing library : VirtualDubMod build 2540/release
Video #0
ID : 0
Format : MPEG-4 Visual
Format profile : Advanced Simple@L5
Format settings, BVOP : 1
Format settings, QPel : No
Format settings, GMC : No warppoints
Format settings, Matrix : Custom
Codec ID : XVID
Codec ID/Hint : XviD
Duration : 1h 43mn
Bit rate : 2 224 Kbps
Width : 720 pixels
Height : 304 pixels
Display aspect ratio : 2.35:1
Frame rate : 25.000 fps
Color space : YUV
Chroma subsampling : 4:2:0
Bit depth : 8 bits
Scan type : Progressive
Compression mode : Lossy
Bits/(Pixel*Frame) : 0.406
Stream size : 1.61 GiB (74%)
Writing library : XviD 1.2.1 (UTC 2008-12-04)
Audio #1
ID : 1
Format : AC-3
Format/Info : Audio Coding 3
Mode extension : CM (complete main)
Codec ID : 2000
Duration : 1h 43mn
Bit rate mode : Constant
Bit rate : 384 Kbps
Channel(s) : 6 channels
Channel positions : Front: L C R, Side: L R, LFE
Sampling rate : 48.0 KHz
Bit depth : 16 bits
Compression mode : Lossy
Stream size : 285 MiB (13%)
Alignment : Split accross interleaves
Interleave, duration : 40 ms (1.00 video frame)
Interleave, preload duration : 500 ms
Audio #2
ID : 2
Format : AC-3
Format/Info : Audio Coding 3
Mode extension : CM (complete main)
Codec ID : 2000
Duration : 1h 43mn
Bit rate mode : Constant
Bit rate : 192 Kbps
Channel(s) : 2 channels
Channel positions : Front: L R
Sampling rate : 48.0 KHz
Bit depth : 16 bits
Compression mode : Lossy
Stream size : 142 MiB (6%)
Alignment : Split accross interleaves
Interleave, duration : 40 ms (1.00 video frame)
Interleave, preload duration : 500 ms
Audio #3
ID : 3
Format : AC-3
Format/Info : Audio Coding 3
Mode extension : CM (complete main)
Codec ID : 2000
Duration : 1h 43mn
Bit rate mode : Constant
Bit rate : 192 Kbps
Channel(s) : 2 channels
Channel positions : Front: L R
Sampling rate : 48.0 KHz
Bit depth : 16 bits
Compression mode : Lossy
Stream size : 142 MiB (6%)
Alignment : Split accross interleaves
Interleave, duration : 40 ms (1.00 video frame)
Interleave, preload duration : 500 ms
picpicpic
Для увеличения картинки щелкните мышкой по превью

Этот торрент недоступен для скачивания без регистрации, однако доступен по публичной magnet-ссылке (источники с публичных трекеров). Перед использованием ссылки прочтите, пожалуйста Пользовательское соглашение, а также как можно дольше оставайтесь на раздаче! Для того, чтобы скачать сам торрент-файл (который видит больше источников), а также для того, чтобы поблагодарить релизера, вам необходимо зарегистрироваться. Если регистрироваться лень - вы можете также попробовать скачать релиз по нашим партнерским ссылкам ниже.

[underverse.su].t23246.torrent
Трекер: Зарегистрирован   [ 13.01.2013 08:30 ]  

Статус: проверено (by Garnett at 13.01.2013 09:25)
Поблагодарили: пока никто не поблагодарил...
Тип торрента: публичный - доступные источники с открытых трекеров: 
Размер: 2,18 GB (занимает 1/2 DVDR, для записи нужно 1 болванка DVDR/RW)
 
 
Похожие темы
Форум Тема Автор Торрент Отв. Посл. сооб.
Зарубежное кино [DVDRip, Low-Res HDRip, и т.д.] Пересечение / La traversee (Жером Корню) [2012 г., триллер, HDTVRip-AVC] DVO (НТВ+) 90ytr90
1 | 0

0 | 272

6

19.04.2014 19:09


Яндекс.Метрика powered by Sphinx


В Н И М А Н И Е
Сайт не распространяет и не хранит электронные версии произведений, а лишь бесплатно и без коммерческой выгоды (не требуя взамен платы,
SMS и т.д.) предоставляет доступ к создаваемому пользователями каталогу ссылок на торрент-файлы, которые содержат только списки хеш-сумм.
Убедительная просьба с жалобами обращаться напрямую к пользователю, разместившему торрент файл.

Вверх