Loading...
Error

Чудный мальчик / Boy Wonder (Майкл Морриссей) [2010, боевик, триллер, драма, HDRip] MVO + Orig

Статистика раздачи
Размер:  1,46 GB   |    Зарегистрирован:  3 года 10 месяцев   |    Скачан:  14 раз

Полного источника не было: 6 месяцев

Сидов:  0  |  0 KB/s  ]   Личеров:  0  |  0 KB/s  ]

* - сиды/пиры с внешних источников

   
 
Автор Сообщение

Garnett Пол:Муж

13-Янв-2013 08:23

Чудный мальчик / Boy Wonder

Страна: США
Жанр: боевик, триллер, драма, криминал
Год выпуска: 2010
Продолжительность: 01:32:33
Перевод: Профессиональный (многоголосый, закадровый) [НТВ+]
Оригинальная аудиодорожка: английский
Субтитры: нет
Режиссер: Майкл Морриссей / Michael Morrissey
В ролях: Калеб Стейнмейер , Зулай Хенао , Билл Сейдж , Дэниэл Стюарт-Шерман , Трэйси Миддендорф , Чак Купер , Джон Шэриан , Кетер Донохью , Джеймс Руссо , Джейк Рандаззо , Robert Stubbs , Крис Берт
Описание: Юноша из Бруклина становится свидетелем жестокого убийства своей матери и растет одержимый лишь одной мыслью, найти убийцу. Так начинается его жизнь, днем он тихий студент отличник, а ночью герой с жаждой мести. Но что такое настоящий герой? И кто решает, что правильно, а что нет? Когда границы добра и зла размыты, двойная жизнь Шона влияет на его психику и навлекает на него опасность.

Качество: HDRip (Исходник неизвестен)
Контейнер: AVI
Видео: XviD, 720x304 (2.35:1), 1860 kbps, 25 fps, 0,340 bpp
Аудио №1: AC3 / 2.0 / 48 kHz / 192 kbps / 16 bit MVO
Аудио №2: AC3 / 2.0 / 48 kHz / 192 kbps / 16 bit Orig
General
Complete name : F:\Vynderkind.2010.P_HDRip..avi
Format : AVI
Format/Info : Audio Video Interleave
File size : 1.46 GiB
Duration : 1h 32mn
Overall bit rate : 2 260 Kbps
Writing application : VirtualDubMod 1.5.10.2 (build 2540/release)
Writing library : VirtualDubMod build 2540/release
Video
ID : 0
Format : MPEG-4 Visual
Format profile : Advanced Simple@L5
Format settings, BVOP : 2
Format settings, QPel : No
Format settings, GMC : No warppoints
Format settings, Matrix : Default (MPEG)
Codec ID : XVID
Codec ID/Hint : XviD
Duration : 1h 32mn
Bit rate : 1 861 Kbps
Width : 720 pixels
Height : 304 pixels
Display aspect ratio : 2.35:1
Frame rate : 25.000 fps
Color space : YUV
Chroma subsampling : 4:2:0
Bit depth : 8 bits
Scan type : Progressive
Compression mode : Lossy
Bits/(Pixel*Frame) : 0.340
Stream size : 1.20 GiB (82%)
Writing library : XviD 1.2.1 (UTC 2008-12-04)
Audio #1
ID : 1
Format : AC-3
Format/Info : Audio Coding 3
Mode extension : CM (complete main)
Codec ID : 2000
Duration : 1h 32mn
Bit rate mode : Constant
Bit rate : 192 Kbps
Channel(s) : 2 channels
Channel positions : Front: L R
Sampling rate : 48.0 KHz
Bit depth : 16 bits
Compression mode : Lossy
Delay relative to video : 9ms
Stream size : 127 MiB (8%)
Alignment : Split accross interleaves
Interleave, duration : 40 ms (1.00 video frame)
Interleave, preload duration : 500 ms
Audio #2
ID : 2
Format : AC-3
Format/Info : Audio Coding 3
Mode extension : CM (complete main)
Codec ID : 2000
Duration : 1h 32mn
Bit rate mode : Constant
Bit rate : 192 Kbps
Channel(s) : 2 channels
Channel positions : Front: L R
Sampling rate : 48.0 KHz
Bit depth : 16 bits
Compression mode : Lossy
Stream size : 127 MiB (8%)
Alignment : Split accross interleaves
Interleave, duration : 40 ms (1.00 video frame)
Interleave, preload duration : 500 ms
picpicpic

Этот торрент недоступен для скачивания без регистрации, однако доступен по публичной magnet-ссылке (источники с публичных трекеров). Перед использованием ссылки прочтите, пожалуйста Пользовательское соглашение, а также как можно дольше оставайтесь на раздаче! Для того, чтобы скачать сам торрент-файл (который видит больше источников), а также для того, чтобы поблагодарить релизера, вам необходимо зарегистрироваться. Если регистрироваться лень - вы можете также попробовать скачать релиз по нашим партнерским ссылкам ниже.

[underverse.su].t23245.torrent
Трекер: Зарегистрирован   [ 13.01.2013 08:23 ]  

Статус: проверено (by garry at 13.01.2013 13:19)
Поблагодарили: 1 человек
Тип торрента: публичный - доступные источники с открытых трекеров: 
Размер: 1,46 GB (занимает 0,33 DVDR, для записи нужно 1 болванка DVDR/RW)
 
 

Яндекс.Метрика powered by Sphinx


В Н И М А Н И Е
Сайт не распространяет и не хранит электронные версии произведений, а лишь бесплатно и без коммерческой выгоды (не требуя взамен платы,
SMS и т.д.) предоставляет доступ к создаваемому пользователями каталогу ссылок на торрент-файлы, которые содержат только списки хеш-сумм.
Убедительная просьба с жалобами обращаться напрямую к пользователю, разместившему торрент файл.

Вверх