Loading...
Error

Отклонение / Swerve (Крэйг Лэхифф) [2011, триллер, HDRip] VO + Orig

Статистика раздачи
Размер:  1,37 GB   |    Зарегистрирован:  3 года 10 месяцев   |    Скачан:  17 раз

Полного источника не было: 2 года 2 месяца

Сидов:  0  |  0 KB/s  ]   Личеров:  0  |  0 KB/s  ]

* - сиды/пиры с внешних источников

   
 
Автор Сообщение

Garnett Пол:Муж

13-Янв-2013 08:08

Отклонение / Swerve

Страна: Австралия
Жанр: триллер
Год выпуска: 2011
Продолжительность: 01:26:06
Перевод: Одноголосый закадровый [Хихикающий доктор]
Оригинальная аудиодорожка: английский
Субтитры: нет
Режиссер: Крэйг Лэхифф / Craig Lahiff
В ролях: Джейсон Кларк , Эмма Бут , Дэвид Лайонс , Трэвис МакМахон , Винс Колосимо , Рой Биллинг , Энди Андерсон , Chris Asimos , Чан Гриффин , Брендан Герин , Скотт Харрисон , Крис Хейвуд
Описание: Колин едет устраиваться на работу в другой город и осторожно ведет свою машину по сложной трассе, однако возникшая неисправность вынуждает его отклониться от маршрута и свернуть в сторону захудалого городишка. Но здесь на его глазах происходит жуткая автомобильная авария, на месте которой он находит портфель с деньгами. Колин подавляет искушение и делает правильный выбор, возвращая портфель местным полицейским, но его благодеяние в дальнейшем вызывает серию катастрофических событий.

Качество: HDRip (Исходник неизвестен)
Контейнер: AVI
Видео: XviD, 720x304 (2.35:1), 1745 kbps, 24 fps, 0,332 bpp
Аудио №1: MP3 / 2.0 / 48 kHz / 128 kbps / Русский
Аудио №2: AC3 / 5.1 / 48 kHz / 384 kbps / 16 bit Оригинал
General
Complete name : F:\Otklonenie.2011.L1_HDRip.avi
Format : AVI
Format/Info : Audio Video Interleave
File size : 1.37 GiB
Duration : 1h 26mn
Overall bit rate : 2 271 Kbps
Writing application : VirtualDubMod 1.5.10.2 (build 2540/release)
Writing library : VirtualDubMod build 2540/release
Video
ID : 0
Format : MPEG-4 Visual
Format profile : Advanced Simple@L5
Format settings, BVOP : 2
Format settings, QPel : No
Format settings, GMC : No warppoints
Format settings, Matrix : Custom
Codec ID : XVID
Codec ID/Hint : XviD
Duration : 1h 26mn
Bit rate : 1 745 Kbps
Width : 720 pixels
Height : 304 pixels
Display aspect ratio : 2.35:1
Frame rate : 24.000 fps
Color space : YUV
Chroma subsampling : 4:2:0
Bit depth : 8 bits
Scan type : Progressive
Compression mode : Lossy
Bits/(Pixel*Frame) : 0.332
Stream size : 1.05 GiB (77%)
Writing library : XviD 64
Audio #1
ID : 1
Format : MPEG Audio
Format version : Version 1
Format profile : Layer 3
Mode : Joint stereo
Codec ID : 55
Codec ID/Hint : MP3
Duration : 1h 26mn
Bit rate mode : Constant
Bit rate : 128 Kbps
Channel(s) : 2 channels
Sampling rate : 48.0 KHz
Compression mode : Lossy
Stream size : 78.8 MiB (6%)
Alignment : Aligned on interleaves
Interleave, duration : 42 ms (1.00 video frame)
Interleave, preload duration : 504 ms
Audio #2
ID : 2
Format : AC-3
Format/Info : Audio Coding 3
Mode extension : CM (complete main)
Codec ID : 2000
Duration : 1h 26mn
Bit rate mode : Constant
Bit rate : 384 Kbps
Channel(s) : 6 channels
Channel positions : Front: L C R, Side: L R, LFE
Sampling rate : 48.0 KHz
Bit depth : 16 bits
Compression mode : Lossy
Stream size : 237 MiB (17%)
Alignment : Split accross interleaves
Interleave, duration : 42 ms (1.00 video frame)
Interleave, preload duration : 500 ms
picpicpic

Этот торрент недоступен для скачивания без регистрации, однако доступен по публичной magnet-ссылке (источники с публичных трекеров). Перед использованием ссылки прочтите, пожалуйста Пользовательское соглашение, а также как можно дольше оставайтесь на раздаче! Для того, чтобы скачать сам торрент-файл (который видит больше источников), а также для того, чтобы поблагодарить релизера, вам необходимо зарегистрироваться. Если регистрироваться лень - вы можете также попробовать скачать релиз по нашим партнерским ссылкам ниже.

[underverse.su].t23243.torrent
Трекер: Зарегистрирован   [ 13.01.2013 08:08 ]  

Статус: проверено (by garry at 13.01.2013 13:16)
Поблагодарили: 1 человек
Тип торрента: публичный - доступные источники с открытых трекеров: 
Размер: 1,37 GB (занимает 0,31 DVDR, для записи нужно 1 болванка DVDR/RW)
 
 
Похожие темы
Форум Тема Автор Торрент Отв. Посл. сооб.
Зарубежное кино [DVDRip, Low-Res HDRip, и т.д.] Отклонение от нормы / Saam cha hau (Бенни Чан / Benny Chan) [2005 г., боевик, криминал, DVDRip] MVO + Chi 90ytr90
0 | 0

0 | 754

1

10.02.2013 18:06

Зарубежное кино [DVDRip, Low-Res HDRip, и т.д.] Отклонение от нормы / Saam cha hau (Бенни Чан / Benny Chan) [2005 г., боевик, криминал, DVDRip] MVO 90ytr90
1 | 0

0 | 904

3

10.02.2013 18:10


Яндекс.Метрика powered by Sphinx


В Н И М А Н И Е
Сайт не распространяет и не хранит электронные версии произведений, а лишь бесплатно и без коммерческой выгоды (не требуя взамен платы,
SMS и т.д.) предоставляет доступ к создаваемому пользователями каталогу ссылок на торрент-файлы, которые содержат только списки хеш-сумм.
Убедительная просьба с жалобами обращаться напрямую к пользователю, разместившему торрент файл.

Вверх