Loading...
Error

Паутина 6 / Серии: 1-24 (24) (Андрей Хрулев) [2013, Детектив, криминал, SATRip]

Статистика раздачи
Размер:  13,21 GB   |    Зарегистрирован:  3 года 10 месяцев   |    Скачан:  6 раз

Полного источника не было: 2 года

Сидов:  0  |  0 KB/s  ]   Личеров:  0  |  0 KB/s  ]

* - сиды/пиры с внешних источников

   
 
Автор Сообщение

nemos Пол:Муж

12-Янв-2013 17:23



Год выпуска: 2013
Жанр: Детектив
Страна: Россия
Режиссер: Андрей Хрулев
В ролях: Юлия Селиванова, Ника Балина, Янина Когут, Анна Куркова, Александр Денисов (III), Андрей Муравьёв, Ангелина Притуманова, Александр Баринов, Александра Булычёва, Олег Харитонов, Олег Филипчик, Маргарита Иванова-Донская (IV), Валерий Новиков, Николай Зазуля, Наталья Дворецкая, Евгений Галушко, Анна Карышева
Паутина криминальных связей становится больше. С ней продолжает борьбу начальник убойного отдела майор Фёдор Туманов (Олег Харитонов). В новом сезоне Туманов с капитаном Петром Грековым (Олег Филипчик) будут разгадывать ещё более изощрённые криминальные загадки. Например, в одной из них фигурирует чёрный тюльпан, что был в букете, который оказался на месте очередного преступления. Туманову кажется всё это подозрительным: чёрный тюльпан уж слишком контрастирует с нежными белыми розами. Греков считает, что Туманов отстал от жизни, ведь сейчас в нынешнем гламурном обществе нет никаких правил. Нашим операм придётся выяснить, что это: «гламур и дизигн» от современных флористов или атрибут изощренных методов преступника?


Качество видео: SatRip

Продолжительность: 00:45:56 серия
Формат: AVI
Видео: XviD, 704 x 400, 1 494 kbps
Аудио: русский, MP3 2.0, 128 kbps

Код:

F:\СКАЧКИ\С underverse\Паутина 6. 2013. SATRip\Паутина 6.24.avi
   General
      Complete name : F:\СКАЧКИ\С underverse\Паутина 6. 2013. SATRip\Паутина 6.24.avi
      Format : AVI
      Format/Info : Audio Video Interleave
      File size : 536 MiB
      Duration : 45mn 56s
      Overall bit rate : 1 632 Kbps
      Writing application : VirtualDubMod 1.5.10.2 (build 2540/release)
      Writing library : VirtualDub build 32507/release
   Video #0
      ID : 0
      Format : MPEG-4 Visual
      Format profile : Advanced Simple@L5
      Format settings, BVOP : 2
      Format settings, QPel : No
      Format settings, GMC : No warppoints
      Format settings, Matrix : Default (MPEG)
      Codec ID : XVID
      Codec ID/Hint : XviD
      Duration : 45mn 56s
      Bit rate : 1 494 Kbps
      Width : 720 pixels
      Height : 400 pixels
      Display aspect ratio : 16:9
      Frame rate : 25.000 fps
      Color space : YUV
      Chroma subsampling : 4:2:0
      Bit depth : 8 bits
      Scan type : Progressive
      Compression mode : Lossy
      Bits/(Pixel*Frame) : 0.207
      Stream size : 491 MiB (92%)
      Writing library : XviD 64
   Audio #1
      ID : 1
      Format : MPEG Audio
      Format version : Version 1
      Format profile : Layer 3
      Mode : Joint stereo
      Mode extension : MS Stereo
      Codec ID : 55
      Codec ID/Hint : MP3
      Duration : 45mn 56s
      Bit rate mode : Constant
      Bit rate : 128 Kbps
      Channel(s) : 2 channels
      Sampling rate : 48.0 KHz
      Compression mode : Lossy
      Stream size : 42.1 MiB (8%)
      Alignment : Aligned on interleaves
      Interleave, duration : 40 ms (1.00 video frame)
      Interleave, preload duration : 504 ms
      Writing library : LAME3.90.3
Семпл: http://multi-up.com/815893

picpicpicpicpicpicpicpicpicpicpicpicpicpicpicpic
Для увеличения картинки щелкните мышкой по превью

Этот торрент недоступен для скачивания без регистрации, однако доступен по публичной magnet-ссылке (источники с публичных трекеров). Перед использованием ссылки прочтите, пожалуйста Пользовательское соглашение, а также как можно дольше оставайтесь на раздаче! Для того, чтобы скачать сам торрент-файл (который видит больше источников), а также для того, чтобы поблагодарить релизера, вам необходимо зарегистрироваться. Если регистрироваться лень - вы можете также попробовать скачать релиз по нашим партнерским ссылкам ниже.

[underverse.su].t23455.torrent
Трекер: Зарегистрирован   [ 18.01.2013 20:40 ]  

Статус: проверено (by garry at 18.01.2013 21:14)
Поблагодарили: 1 человек
Тип торрента: публичный - доступные источники с открытых трекеров: 
Размер: 13,21 GB (занимает 3,02 DVDR, для записи нужно 4 болванки DVDR/RW)
 
 


Последний раз редактировалось: nemos (06.11.2014 12:33), всего редактировалось 9 раз(а)

nemos Пол:Муж

14-Янв-2013 16:47

Обновлена

nemos Пол:Муж

16-Янв-2013 00:37

Обновлена,

nemos Пол:Муж

17-Янв-2013 07:37

Обновлена(18)

nemos Пол:Муж

18-Янв-2013 20:42

Обновлена 24 (24)

Яндекс.Метрика powered by Sphinx


В Н И М А Н И Е
Сайт не распространяет и не хранит электронные версии произведений, а лишь бесплатно и без коммерческой выгоды (не требуя взамен платы,
SMS и т.д.) предоставляет доступ к создаваемому пользователями каталогу ссылок на торрент-файлы, которые содержат только списки хеш-сумм.
Убедительная просьба с жалобами обращаться напрямую к пользователю, разместившему торрент файл.

Вверх