Loading...
Error

Военная разведка. Северный фронт (Петр Амелин) [2012 г., военный, приключения, DVDRip]

Статистика раздачи
Размер:  4,37 GB   |    Зарегистрирован:  3 года 10 месяцев   |    Скачан:  23 раза

Полного источника не было: 10 месяцев

Сидов:  0  |  0 KB/s  ]   Личеров:  0  |  0 KB/s  ]

* - сиды/пиры с внешних источников

   
 
Автор Сообщение

vovk Пол:Муж

11-Янв-2013 19:41

Военная разведка. Северный фронт


Год выпуска: 2012
Жанр: военный, приключения
Страна: Россия
Режиссер: Петр Амелин
В ролях: Борис Щербаков, Павел Трубинер, Филипп Азаров, Степан Бекетов, Нина Курпякова, Алексей Лысенко, Александр Мосолов, Анна Пескова, Михаил Сидаш, Элли Нярья, Сергей Шкарбан, Александр Кудренко, Михаил Трясоруков, Александр Блок, Сергей Потехин, Олег Метелев, Михаил Ширяев, Кирилл Власиков, Андрей Пынзару, Иван Кондаков, Дмитрий Михайло, Александр Русинов, Руслан Нагнибеда, Денис Решетников, Юлия Денисова, Дмитрий Мурашев, Олег Корытин, Валерий Скляров, Владимир Шумков, Олег Трифонов, Олег Амелин, Мария Вага, Татьяна Захарова, Валерий Саломахин, Андрей Кошевой, Александр Ленин, Андрей Аксенов, Александр Вонтов, Игорь Добряков, Артем Лещик, Дмитрий Могучев, Георгий Маришин, Сергей Малюгов, Артём Яковлев (II), Денис Горин, Андрей Балашов (II), Вадим Лымарь, Владимир Марков, Олег Попов (II), Георгий Мещеряков, Павел Харизанов, Евгений Филатов, Виталий Горев, Яри Маттонен, Алексей Поросевич, Екатерина Максимова (II), Максим Митяшин, Владимир Сухов, Дмитрий Кочкин, Сергей Андрейчук, Алексей Фокин, Глеб Щур, Витас Эйзенах, Антон Успенский, Александр Ершов, Андрей Некрасов (III), Нина Жернакова, Тимофей Литвинов...
Сюжет фильма:
«Северный фронт» - приквел к вышедшим ранее сериалам «Военная разведка. Западный фронт» и «Военная разведка. Первый удар». Действие фильма разворачивается накануне и во время Советско-финской войны 1939-40 годов.
Сериал рассказывает о формировании команды разведчиков, освещает ее действия на Северном фронте в 1939 году перед началом белофинской кампании, и об операциях разведчиков непосредственно во время Финской войны.
Им предстоит проследить за разворачиванием финской артиллерии на границе с Советским Союзом и стать невольными свидетелями первого выстрела по родной территории; обнаружить лагерь, в котором немецкие инструкторы готовят агентов для заброски на территорию СССР; взорвать шлюз, чтобы предотвратить затопление позиций наших войск у линии Маннергейма; расквитаться с «убийцей офицеров», неуловимым финским снайпером…


Качество видео: DVDRip

Продолжительность: 00:48:05
Формат: avi
Видео: XviD, 720x400, 1421 kbps
Аудио: русский, оригинал, AC3 2.0, 192 kbps

Код:

General
Complete name                    : G:\комедии спорт\папа фильмы\Voennaja.razvedka-3.Severnyj.front.(8.serii.iz.8).2012.XviD.DVDRip\Voennaja.razvedka-3.Severnyj.front.(3.serija.iz.8).2012.XviD.DVDRip.avi
Format                           : AVI
Format/Info                      : Audio Video Interleave
File size                        : 558 MiB
Duration                         : 48mn 5s
Overall bit rate                 : 1 623 Kbps
Writing application              : VirtualDubMod 1.5.10.3 | www.virtualdub-fr.org || (build 2550/release)
Writing library                  : VirtualDubMod build 2550/release

Video
ID                               : 0
Format                           : MPEG-4 Visual
Format profile                   : Streaming Video@L1
Format settings, BVOP            : Yes
Format settings, QPel            : No
Format settings, GMC             : No warppoints
Format settings, Matrix          : Custom
Codec ID                         : XVID
Codec ID/Hint                    : XviD
Duration                         : 48mn 5s
Bit rate                         : 1 421 Kbps
Width                            : 720 pixels
Height                           : 400 pixels
Display aspect ratio             : 16/9
Frame rate                       : 25.000 fps
Resolution                       : 24 bits
Colorimetry                      : 4:2:0
Scan type                        : Progressive
Bits/(Pixel*Frame)               : 0.197
Stream size                      : 489 MiB (88%)
Writing library                  : XviD 64

Audio
ID                               : 1
Format                           : AC-3
Format/Info                      : Audio Coding 3
Codec ID                         : 2000
Duration                         : 48mn 5s
Bit rate mode                    : Constant
Bit rate                         : 192 Kbps
Channel(s)                       : 2 channels
Channel positions                : L R
Sampling rate                    : 48.0 KHz
Stream size                      : 66.0 MiB (12%)
Alignment                        : Split accross interleaves
Interleave, duration             : 40 ms (1.00 video frame)
Interleave, preload duration     : 500 ms

picpicpicpic
Для увеличения картинки щелкните мышкой по превью


Военная разведка. Западный фронт http://underverse.su/viewtopic.php?t=13542
Военная разведка. Первый удар http://underverse.su/viewtopic.php?t=19126

Этот торрент недоступен для скачивания без регистрации, однако доступен по публичной magnet-ссылке (источники с публичных трекеров). Перед использованием ссылки прочтите, пожалуйста Пользовательское соглашение, а также как можно дольше оставайтесь на раздаче! Для того, чтобы скачать сам торрент-файл (который видит больше источников), а также для того, чтобы поблагодарить релизера, вам необходимо зарегистрироваться. Если регистрироваться лень - вы можете также попробовать скачать релиз по нашим партнерским ссылкам ниже.

[underverse.su].t23211.torrent
Трекер: Зарегистрирован   [ 11.01.2013 19:56 ]  

Статус: проверено (by maddd at 11.01.2013 20:01)
Поблагодарили: 1 человек
Тип торрента: публичный - доступные источники с открытых трекеров: 
Размер: 4,37 GB (занимает 1 DVDR, для записи нужно 1 болванка DVDR/RW)
 
 
Похожие темы
Форум Тема Автор Торрент Отв. Посл. сооб.
xUSSR сериалы Военная разведка: Первый удар (Алексей Праздников) [2012 г., военный, приключения, DVDRip] vovk
0 | 0

1 | 1002

26

27.05.2012 13:32

xUSSR сериалы Военная разведка. Западный фронт (8 серий из 8) (Алексей Праздников) [2010 г., военный, приключения, DVDRip] vovk
0 | 0

1 | 1804

11

27.05.2012 13:34


Яндекс.Метрика powered by Sphinx


В Н И М А Н И Е
Сайт не распространяет и не хранит электронные версии произведений, а лишь бесплатно и без коммерческой выгоды (не требуя взамен платы,
SMS и т.д.) предоставляет доступ к создаваемому пользователями каталогу ссылок на торрент-файлы, которые содержат только списки хеш-сумм.
Убедительная просьба с жалобами обращаться напрямую к пользователю, разместившему торрент файл.

Вверх