Loading...
Error

Заложница [Расширенная версия] / Taken [Extended Cut] (Пьер Морель) [2008 г., боевик, триллер, криминал, BDRip] Dub + MVO + Original + Subs HQ Underverse

Статистика раздачи
Размер:  2,18 GB   |    Зарегистрирован:  3 года 10 месяцев   |    Скачан:  46 раз

Полного источника не было: 7 дней

Сидов:  0  |  0 KB/s  ]   Личеров:  0  |  0 KB/s  ]

* - сиды/пиры с внешних источников

   
 
Автор Сообщение

HQ Underverse 

10-Янв-2013 03:18

Заложница [Расширенная версия] / Taken [Extended Cut]


Год выпуска: 2008
Жанр: боевик, триллер, криминал
Страна: Франция , США , Великобритания
Режиссер: Пьер Морель
В ролях: Лиам Нисон, Мэгги Грэйс, Лиленд Орсер, Джон Грайз, Дэвид Уоршофски, Холли Вэлэнс, Кэти Кэссиди, Ксандер Беркли, Оливье Рабурден, Жерар Уоткинс
Сюжет фильма:
Молодую девушку похитили во время туристического отдыха. Её отец пускается в опасное приключение-спасение, чтобы вернуть дочь и наказать виновных лично.

  • Мировая премьера: 27 февраля 2008
  • Российская премьера: 18 сентября 2008, «Двадцатый Век Фокс СНГ»

/
Качество видео: BDRip [Заложница / Taken (2008) Blu-ray EUR 1080p AVC DTS 5.1-DON / HD Club]

Продолжительность: 01:33:24
Формат: avi
Видео: XviD, 720x304, 1972 kbps
Аудио #1: русский, дублированный [лицензия, имеются места без перевода; лучше смотреть с форсированными субтитрами], AC3 5.1, 448 kbps
Аудио #2: украинский, многоголосый закадровый [профессиональный, студия "Омікрон" по заказу Hurtom.com], AC3 5.1, 448 kbps
Аудио #3: английский, оригинал, AC3 5.1, 448 kbps
Субтитры #1: внешние, SRT, русский
Субтитры #2: внешние, SRT, русский Forced (на французскую, албанскую и арабскую речь)
Субтитры #3: внешние, SRT, украинский
Субтитры #4: внешние, SRT, английский

Код:

General
Complete name                    : D:\Video\Movies\Releases\Taken.Extended.Cut.2008.BDRip.XviD.AC3.Rus.D.Ukr.MVO.Eng.O.HQ.Underverse.avi
Format                           : AVI
Format/Info                      : Audio Video Interleave
Format profile                   : OpenDML
File size                        : 2.18 GiB
Duration                         : 1h 33mn
Overall bit rate                 : 3 341 Kbps
Writing application              : VirtualDubMod 1.5.10.2 (build 2540/release)
Writing library                  : VirtualDubMod build 2540/release

Video
ID                               : 0
Format                           : MPEG-4 Visual
Format profile                   : Streaming Video@L1
Format settings, BVOP            : Yes
Format settings, QPel            : No
Format settings, GMC             : No warppoints
Format settings, Matrix          : Custom
Muxing mode                      : Packed bitstream
Codec ID                         : XVID
Codec ID/Hint                    : XviD
Duration                         : 1h 33mn
Bit rate                         : 1 973 Kbps
Width                            : 720 pixels
Height                           : 304 pixels
Display aspect ratio             : 2.35
Frame rate                       : 23.976 fps
Resolution                       : 24 bits
Colorimetry                      : 4:2:0
Scan type                        : Progressive
Bits/(Pixel*Frame)               : 0.376
Stream size                      : 1.29 GiB (59%)
Writing library                  : XviD 64

Audio #1
ID                               : 1
Format                           : AC-3
Format/Info                      : Audio Coding 3
Codec ID                         : 2000
Duration                         : 1h 33mn
Bit rate mode                    : Constant
Bit rate                         : 448 Kbps
Channel(s)                       : 6 channels
Channel positions                : Front: L C R, Surround: L R, LFE
Sampling rate                    : 48.0 KHz
Stream size                      : 299 MiB (13%)
Alignment                        : Split accross interleaves
Interleave, duration             : 42 ms (1.00 video frame)
Interleave, preload duration     : 500 ms
Title                            : Taken.Extended.Cut.2008.AC3.5.1.Rus.D.448.kbps.HQ.Underverse.ac3

Audio #2
ID                               : 2
Format                           : AC-3
Format/Info                      : Audio Coding 3
Codec ID                         : 2000
Duration                         : 1h 33mn
Bit rate mode                    : Constant
Bit rate                         : 448 Kbps
Channel(s)                       : 6 channels
Channel positions                : Front: L C R, Surround: L R, LFE
Sampling rate                    : 48.0 KHz
Stream size                      : 299 MiB (13%)
Alignment                        : Split accross interleaves
Interleave, duration             : 42 ms (1.00 video frame)
Interleave, preload duration     : 500 ms
Title                            : Taken.Extended.Cut.2008.AC3.5.1.Ukr.MVO.448.kbps.HQ.Underverse.ac3

Audio #3
ID                               : 3
Format                           : AC-3
Format/Info                      : Audio Coding 3
Codec ID                         : 2000
Duration                         : 1h 33mn
Bit rate mode                    : Constant
Bit rate                         : 448 Kbps
Channel(s)                       : 6 channels
Channel positions                : Front: L C R, Surround: L R, LFE
Sampling rate                    : 48.0 KHz
Stream size                      : 299 MiB (13%)
Alignment                        : Split accross interleaves
Interleave, duration             : 42 ms (1.00 video frame)
Interleave, preload duration     : 500 ms
Title                            : Taken.Extended.Cut.2008.AC3.5.1.Eng.O.448.kbps.HQ.Underverse.ac3

Семпл: http://multi-up.com/814613

Релиз группы:

picpicpic
Для увеличения картинки щелкните мышкой по превью

Этот торрент недоступен для скачивания без регистрации, однако доступен по публичной magnet-ссылке (источники с публичных трекеров). Перед использованием ссылки прочтите, пожалуйста Пользовательское соглашение, а также как можно дольше оставайтесь на раздаче! Для того, чтобы скачать сам торрент-файл (который видит больше источников), а также для того, чтобы поблагодарить релизера, вам необходимо зарегистрироваться. Если регистрироваться лень - вы можете также попробовать скачать релиз по нашим партнерским ссылкам ниже.

[underverse.su].t23161.torrent
Трекер: Зарегистрирован   [ 10.01.2013 03:18 ]  

Статус: проверено (by Паукан at 10.01.2013 06:05)
Поблагодарили: 3 человека
Тип торрента: публичный - доступные источники с открытых трекеров: 
Размер: 2,18 GB (занимает 1/2 DVDR, для записи нужно 1 болванка DVDR/RW)
 
 
Похожие темы
Форум Тема Автор Торрент Отв. Посл. сооб.
T Зарубежное кино [DVDRip, Low-Res HDRip, и т.д.] Заложница 2 / Taken 2 (Оливье Мегатон) [2012, Боевик, Триллер, Драма, BDRip] Dub [Чистый звук] + MVO Ukr (Омикрон) + Original Eng Garnett
2 | 0

1 | 1336

24

07.01.2013 09:49

Зарубежное кино [DVDRip, Low-Res HDRip, и т.д.] Заложница 2 / Taken 2 [Theatrical Cut] (Оливье Мегатон) [2012 г., Боевик, триллер, драма, криминал, HDRip] Dub 90ytr90
0 | 0

0 | 1681

100

07.02.2013 14:48

Зарубежное кино [DVDRip, Low-Res HDRip, и т.д.] Заложница 2 / Taken 2 [Unrated Extended Cut] (Оливье Мегатон) [2012 г., боевик, триллер, драма, криминал, HDRip] Dub garry
2 | 0

0 | 1792

14

26.10.2013 22:17

Зарубежное кино [DVDRip, Low-Res HDRip, и т.д.] Заложница 2 / Taken 2 [Unrated Extended Cut] (Оливье Мегатон) [2012 г., боевик, триллер, драма, криминал, BDRip-AVC] Dub + Original garry
1 | 0

0 | 944

28

26.10.2013 22:28

T Зарубежное кино [DVDRip, Low-Res HDRip, и т.д.] Заложница 3 / Taken 3 (Оливье Мегатон) [2014 г., боевик, триллер, криминал, HDTVRip] Dub [Звук с CAMRip] Паукан
0 | 0

0 | 1674

107

23.01.2015 13:16

T Зарубежное кино [DVDRip, Low-Res HDRip, и т.д.] Заложница 3 / Taken 3 (Оливье Мегатон / Olivier Megaton) [2014 г., боевик, триллер, HDTVRip] Dub (звук с CAMRip) + Original (Eng) 90ytr90
15 | 0

0 | 859

23

24.01.2015 20:56

T Зарубежное кино [DVDRip, Low-Res HDRip, и т.д.] Заложница 3 / Taken 3 (Оливье Мегатон / Olivier Megaton) [2014 г., боевик, триллер, WEB-DLRip] 90ytr90
0 | 0

0 | 787

11

28.01.2015 09:51

T Зарубежное кино [DVDRip, Low-Res HDRip, и т.д.] Заложница 3 / Taken 3 (Оливье Мегатон) [2014 г., Боевик, Триллер, HDTVRip] Dub (RUS, Чистый звук) Ведьмочка
18 | 0

0 | 1159

80

29.01.2015 14:58

T Зарубежное кино [DVDRip, Low-Res HDRip, и т.д.] Заложница 3 / Taken 3 (Оливье Мегатон / Olivier Megaton) [2014 г., боевик, триллер, HDTVRip] Dub (чистый звук) + Original (Eng) 90ytr90
1 | 0

0 | 910

41

29.01.2015 16:45

T Зарубежное кино [DVDRip, Low-Res HDRip, и т.д.] Заложница 3 / Taken 3 (Оливье Мегатон / Olivier Megaton) [2014 г., боевик, триллер, HDTVRip-AVC] Dub (чистый звук) + Original (Eng) 90ytr90
2 | 0

0 | 788

60

30.01.2015 16:11



Последний раз редактировалось: HQ Underverse (10.01.2013 05:46), всего редактировалось 2 раз(а)

Adarvik Пол:Муж

10-Янв-2013 04:30

Хороший фильм Спасибо.

Яндекс.Метрика powered by Sphinx


В Н И М А Н И Е
Сайт не распространяет и не хранит электронные версии произведений, а лишь бесплатно и без коммерческой выгоды (не требуя взамен платы,
SMS и т.д.) предоставляет доступ к создаваемому пользователями каталогу ссылок на торрент-файлы, которые содержат только списки хеш-сумм.
Убедительная просьба с жалобами обращаться напрямую к пользователю, разместившему торрент файл.

Вверх