Loading...
Error

Скайлайн / Skyline (Колин Штраус, Грег Штраус) [2010 г., фантастика, боевик, триллер, BDRip-AVC] Dub + Original

Статистика раздачи
Размер:  2,17 GB   |    Зарегистрирован:  3 года 10 месяцев   |    Скачан:  16 раз

Полного источника не было: 2 месяца 15 дней

Сидов:  0  |  0 KB/s  ]   Личеров:  0  |  0 KB/s  ]

* - сиды/пиры с внешних источников

   
 
Автор Сообщение

garry Пол:Муж

09-Янв-2013 22:35

Скайлайн / Skyline


Год выпуска: 2010
Жанр: фантастика, боевик, триллер
Страна: США
Режиссер: Колин Штраус, Грег Штраус
В ролях: Эрик Бальфур, Скотти Томпсон, Бриттани Дэниэл, Кристал Рид, Нил Хопкинс, Дэвид Зайас, Дональд Фэйсон, Робин Гэммел, Таня Ньюболд, Дж. Пол Бомер
Сюжет фильма:
После вечеринки компания друзей просыпается от того, что в окно ударяет яркий свет. Они видят, как людей на улице затягивает в столп света, и они поднимаются куда-то вверх. Вскоре после этого на планете начинается зачистка оставшихся людей. Выжившим предстоит бороться за жизнь с инопланетными тварями.

  • Мировая премьера: 11 ноября 2010
  • Российская премьера: 11 ноября 2010, «Централ Партнершип»


Качество видео: BDRip-AVC

Продолжительность: 01:33:48
Формат: MKV
Видео: x264, 1152x480, 2409 kbps
Аудио #1: русский, дублированный [лицензия], AC3 5.1, 448 kbps
Аудио #2: английский, оригинал, AC3 5.1, 448 kbps
Субтитры #1: тип: вшитые отключаемые, русский, формат: SRT
Субтитры #2: тип: вшитые отключаемые, английский, формат: SRT

Код:

Уникальный идентификатор         : 217212842809105195321414375175252471685 (0xA369ABFCDD4425E68EABA842EDEDEF85)
 Полное имя                       : Skyline BDRip-AVC x264 Gambit.mkv
 Формат                           : Matroska
 Размер файла                     : 2,17 Гбайт
 Продолжительность                : 1 ч. 33 м.
 Общий поток                      : 3307 Кбит/сек
 Дата кодирования                 : UTC 2011-04-14 15:30:08
 Программа кодирования            : mkvmerge v4.5.0 ('Speed of Light') сборка от Feb 15 2011 12:50:20
 Библиотека кодирования           : libebml v1.2.0 + libmatroska v1.1.0

Видео
 Идентификатор                    : 1
 Формат                           : AVC
 Формат/Информация                : Advanced Video Codec
 Профиль формата                  : High@L4.0
 Параметр CABAC формата           : Да
 Параметр ReFrames формата        : 11 кадры
 Параметры GOP формата            : M=1, N=25
 Идентификатор кодека             : V_MPEG4/ISO/AVC
 Продолжительность                : 1 ч. 33 м.
 Битрейт                          : 2409 Кбит/сек
 Ширина                           : 1152 пикс.
 Высота                           : 480 пикс.
 Соотношение сторон               : 2,40:1
 Частота кадров                   : 23,976 кадр/сек
 Цветовое пространство            : YUV
 Подвыборка цветности             : 4:2:0
 Битовая глубина                  : 8 бит
 Тип развёртки                    : Прогрессивная
 Бит/(Пиксели*Кадры)              : 0.182
 Размер потока                    : 1,54 Гбайт (71%)
 Заголовок                        : Skyline Gambit
 Библиотека кодирования           : x264 core 114 r1913 5fd3dce
 Настройки программы              : cabac=1 / ref=11 / deblock=1:-3:-2 / analyse=0x3:0x133 / me=umh / subme=10 / psy=1 / psy_rd=1.10:0.03 / mixed_ref=1 / me_range=38 / chroma_me=1 / trellis=2 / 8x8dct=1 / cqm=0 / deadzone=21,11 / fast_pskip=0 / chroma_qp_offset=-6 / threads=6 / sliced_threads=0 / nr=0 / decimate=1 / interlaced=0 / constrained_intra=0 / bframes=11 / b_pyramid=2 / b_adapt=2 / b_bias=0 / direct=3 / weightb=1 / open_gop=0 / weightp=2 / keyint=250 / keyint_min=23 / scenecut=40 / intra_refresh=0 / rc=2pass / mbtree=0 / bitrate=2409 / ratetol=1.0 / qcomp=0.70 / qpmin=0 / qpmax=69 / qpstep=4 / cplxblur=20.0 / qblur=0.5 / ip_ratio=1.30 / pb_ratio=1.20 / aq=2:0.90
 Язык                             : English

Аудио #1
 Идентификатор                    : 2
 Формат                           : AC-3
 Формат/Информация                : Audio Coding 3
 Расширение режима                : CM (complete main)
 Идентификатор кодека             : A_AC3
 Продолжительность                : 1 ч. 33 м.
 Вид битрейта                     : Постоянный
 Битрейт                          : 448 Кбит/сек
 Канал(ы)                         : 6 канала(ов)
 Расположение каналов             : Front: L C R, Side: L R, LFE
 Частота                          : 48,0 КГц
 Битовая глубина                  : 16 бит
 Метод сжатия                     : С потерями
 Размер потока                    : 301 Мбайт (14%)
 Заголовок                        : Dub
 Язык                             : Russian

Аудио #2
 Идентификатор                    : 3
 Формат                           : AC-3
 Формат/Информация                : Audio Coding 3
 Расширение режима                : CM (complete main)
 Идентификатор кодека             : A_AC3
 Продолжительность                : 1 ч. 33 м.
 Вид битрейта                     : Постоянный
 Битрейт                          : 448 Кбит/сек
 Канал(ы)                         : 6 канала(ов)
 Расположение каналов             : Front: L C R, Side: L R, LFE
 Частота                          : 48,0 КГц
 Битовая глубина                  : 16 бит
 Метод сжатия                     : С потерями
 Размер потока                    : 301 Мбайт (14%)
 Заголовок                        : Original (Eng)
 Язык                             : English

Текст #1
 Идентификатор                    : 4
 Формат                           : UTF-8
 Идентификатор кодека             : S_TEXT/UTF8
 Идентификатор кодека/Информация  : UTF-8 Plain Text
 Заголовок                        : Rus
 Язык                             : Russian

Текст #2
 Идентификатор                    : 5
 Формат                           : UTF-8
 Идентификатор кодека             : S_TEXT/UTF8
 Идентификатор кодека/Информация  : UTF-8 Plain Text
 Заголовок                        : Eng
 Язык                             : English
Релиз группы:

picpicpic
Для увеличения картинки щелкните мышкой по превью

Этот торрент недоступен для скачивания без регистрации, однако доступен по публичной magnet-ссылке (источники с публичных трекеров). Перед использованием ссылки прочтите, пожалуйста Пользовательское соглашение, а также как можно дольше оставайтесь на раздаче! Для того, чтобы скачать сам торрент-файл (который видит больше источников), а также для того, чтобы поблагодарить релизера, вам необходимо зарегистрироваться. Если регистрироваться лень - вы можете также попробовать скачать релиз по нашим партнерским ссылкам ниже.

[underverse.su].t23159.torrent
Трекер: Зарегистрирован   [ 09.01.2013 22:35 ]  

Статус: проверено (by garry at 09.01.2013 22:35)
Поблагодарили: 3 человека
Тип торрента: публичный - доступные источники с открытых трекеров: 
Размер: 2,17 GB (занимает 1/2 DVDR, для записи нужно 1 болванка DVDR/RW)
 
 
Похожие темы
Форум Тема Автор Торрент Отв. Посл. сооб.
Зарубежное кино [DVDRip, Low-Res HDRip, и т.д.] Скайлайн / Skyline (Колин Штраус, Грег Штраус) [2010 г., фантастика, триллер, BDRip] RG NewCinema
23 | 0

2 | 882

21

09.01.2013 22:42

Зарубежное кино [DVD / HDDVD / BD / Remux] Скайлайн / Skyline (Колин Штраус, Грег Штраус) [2010 г., триллер, фантастика, DVD-9] SKRiptus
0 | 0

0 | 927

1

04.12.2010 08:41

Зарубежное кино [DVD / HDDVD / BD / Remux] Скайлайн / Skyline (Колин Штраус, Грег Штраус) [2010 г., фантастика, триллер, DVD-5 (custom)] andrej-ku
6 | 0

3 | 1128

2

09.01.2013 22:24


Яндекс.Метрика powered by Sphinx


В Н И М А Н И Е
Сайт не распространяет и не хранит электронные версии произведений, а лишь бесплатно и без коммерческой выгоды (не требуя взамен платы,
SMS и т.д.) предоставляет доступ к создаваемому пользователями каталогу ссылок на торрент-файлы, которые содержат только списки хеш-сумм.
Убедительная просьба с жалобами обращаться напрямую к пользователю, разместившему торрент файл.

Вверх