Loading...
Error

Порочная страсть / Arbitrage (Николас Джареки / Nicholas Jarecki) [2012, триллер, драма, BDRip-AVC] Dub + Sub (Rus, Eng)

Статистика раздачи
Размер:  1,45 GB   |    Зарегистрирован:  3 года 11 месяцев   |    Скачан:  9 раз
Сидов:  1  |  0 KB/s  ]   Личеров:  0  |  0 KB/s  ]

* - сиды/пиры с внешних источников

   
 
Автор Сообщение

Garnett Пол:Муж

08-Янв-2013 11:58

Порочная страсть / Arbitrage
Страна: США
Студия: Alvernia Production, Artina Films
Жанр: триллер, драма
Год выпуска: 2012
Продолжительность: 01:47:28
Перевод: Профессиональный (дублированный)
Оригинальная аудиодорожка: нет
Режиссер: Николас Джареки / Nicholas Jarecki
В ролях: Ричард Гир, Сьюзен Сарандон, Тим Рот, Брит Марлинг, Летиция Каста, Нэйт Паркер, Уильям Фридкин, Моника Рэйманд, Джош Пэйс, Кристофер Айджмен
Описание: Роберт Миллер — харизматичный аферист и гениальный любовник. Он привык к тому, что в постелях его всегда ждут жена и любовница, которые, правда, попеременно закатывают ему скандалы, а огромные деньги делаются просто из воздуха. Но дутый бизнес не может держаться долго. Почуяв провал, он стремится поскорее продать свой хедж-фонд крупному банку, прежде чем раскроются его махинации. Непредвиденные события и нелепые ошибки толкают его на отчаянный шаг…
Релиз: fanatus
Качество видео: BDRip (AVC)
Исходник: Blu-ray disc 1080p (USA Transfer)
Контейнер: MKV
Видео: MPEG-4 AVC, 1484 kbps , 800x450 (16:9), 23.976 fps, 0.172 bit/pixel
Аудио: русский (AC3, 6 ch, 48 kHz, 448 kbps)
Cубтитры: русские (Groby), английские
Формат субтитров: softsub (SRT)
Главы: есть
General
Unique ID : 180167609758157453637913004770331013471 (0x878B04FB9AEF875FB75A5845B7C5315F)
Complete name : E:\Porochnaja.strast.2012.x264.BDRip.(AVC).fanatus.mkv
Format : Matroska
Format version : Version 2
File size : 1.45 GiB
Duration : 1h 47mn
Overall bit rate : 1 933 Kbps
Movie name : Arbitrage (2012) - fanatus
Encoded date : UTC 2013-01-07 07:01:45
Writing application : mkvmerge v3.4.0 ('Rapunzel') сборка от May 15 2010 09:38:20
Writing library : libebml v0.8.0 + libmatroska v0.9.0
Video
ID : 1
Format : AVC
Format/Info : Advanced Video Codec
Format profile : High@L4.1
Format settings, CABAC : Yes
Format settings, ReFrames : 12 frames
Codec ID : V_MPEG4/ISO/AVC
Duration : 1h 47mn
Bit rate : 1 484 Kbps
Width : 800 pixels
Height : 450 pixels
Display aspect ratio : 16:9
Frame rate : 23.976 fps
Color space : YUV
Chroma subsampling : 4:2:0
Bit depth : 8 bits
Scan type : Progressive
Bits/(Pixel*Frame) : 0.172
Stream size : 1.09 GiB (75%)
Title : Arbitrage (2012)
Writing library : x264 core 128 r2216 198a7ea
Encoding settings : cabac=1 / ref=12 / deblock=1:-2:-2 / analyse=0x3:0x113 / me=umh / subme=11 / psy=1 / psy_rd=1.00:0.02 / mixed_ref=1 / me_range=48 / chroma_me=1 / trellis=2 / 8x8dct=1 / cqm=0 / deadzone=21,11 / fast_pskip=0 / chroma_qp_offset=-3 / threads=16 / lookahead_threads=2 / sliced_threads=0 / nr=0 / decimate=0 / interlaced=0 / bluray_compat=0 / constrained_intra=0 / bframes=16 / b_pyramid=2 / b_adapt=2 / b_bias=0 / direct=3 / weightb=1 / open_gop=0 / weightp=2 / keyint=240 / keyint_min=23 / scenecut=40 / intra_refresh=0 / rc_lookahead=240 / rc=2pass / mbtree=1 / bitrate=1484 / ratetol=1.0 / qcomp=0.60 / qpmin=0 / qpmax=69 / qpstep=3 / cplxblur=20.0 / qblur=0.5 / vbv_maxrate=50000 / vbv_bufsize=62500 / nal_hrd=none / ip_ratio=1.30 / aq=1:0.95 / zones=144661,154608,q=35
Language : English
Default : Yes
Forced : No
Audio
ID : 2
Format : AC-3
Format/Info : Audio Coding 3
Mode extension : CM (complete main)
Format settings, Endianness : Big
Codec ID : A_AC3
Duration : 1h 47mn
Bit rate mode : Constant
Bit rate : 448 Kbps
Channel(s) : 6 channels
Channel positions : Front: L C R, Side: L R, LFE
Sampling rate : 48.0 KHz
Bit depth : 16 bits
Compression mode : Lossy
Stream size : 344 MiB (23%)
Title : Dub
Language : Russian
Default : Yes
Forced : No
Text #1
ID : 3
Format : UTF-8
Codec ID : S_TEXT/UTF8
Codec ID/Info : UTF-8 Plain Text
Language : Russian
Default : No
Forced : No
Text #2
ID : 4
Format : UTF-8
Codec ID : S_TEXT/UTF8
Codec ID/Info : UTF-8 Plain Text
Language : English
Default : No
Forced : No
Menu
00:00:00.000 : en:00:00:00.000
00:06:24.551 : en:00:06:24.551
00:13:58.671 : en:00:13:58.671
00:20:41.991 : en:00:20:41.991
00:27:21.974 : en:00:27:21.974
00:35:00.473 : en:00:35:00.473
00:40:28.926 : en:00:40:28.926
00:47:20.379 : en:00:47:20.379
00:54:28.891 : en:00:54:28.891
00:57:56.264 : en:00:57:56.264
01:06:57.680 : en:01:06:57.680
01:14:24.502 : en:01:14:24.502
01:19:12.915 : en:01:19:12.915
01:27:47.637 : en:01:27:47.637
01:37:16.456 : en:01:37:16.456
01:40:32.944 : en:01:40:32.944
---[NoImage] raw [info]: 800x450p 1:1 @ 24000/1001 fps (cfr)
---[NoImage] x264 [info]: using SAR=1/1
---[NoImage] x264 [info]: using cpu capabilities: MMX2 SSE2Fast FastShuffle SSEMisalign LZCNT
---[NoImage] x264 [info]: profile High, level 4.1
---[NoImage]
---[NoImage] x264 [info]: frame I:1275 Avg QP:14.10 size: 62719
---[NoImage] x264 [info]: frame P:29914 Avg QP:17.64 size: 18051
---[NoImage] x264 [info]: frame B:123420 Avg QP:20.52 size: 4662
---[NoImage] x264 [info]: consecutive B-frames: 1.5% 1.6% 7.7% 11.0% 14.8% 44.6% 6.5% 3.4% 1.8% 1.1% 1.6% 1.6% 0.9% 0.5% 0.5% 0.3% 0.7%
---[NoImage] x264 [info]: mb I I16..4: 8.4% 63.7% 27.9%
---[NoImage] x264 [info]: mb P I16..4: 0.8% 6.2% 1.5% P16..4: 31.6% 38.9% 14.5% 0.0% 0.0% skip: 6.6%
---[NoImage] x264 [info]: mb B I16..4: 0.1% 0.8% 0.2% B16..8: 36.8% 19.2% 2.8% direct: 3.0% skip:37.1% L0:46.4% L1:44.9% BI: 8.7%
---[NoImage] x264 [info]: 8x8 transform intra:70.9% inter:57.7%
---[NoImage] x264 [info]: direct mvs spatial:97.4% temporal:2.6%
---[NoImage] x264 [info]: coded y,uvDC,uvAC intra: 81.5% 80.3% 64.4% inter: 19.3% 15.0% 8.0%
---[NoImage] x264 [info]: i16 v,h,dc,p: 47% 15% 5% 33%
---[NoImage] x264 [info]: i8 v,h,dc,ddl,ddr,vr,hd,vl,hu: 18% 8% 9% 9% 11% 12% 11% 11% 11%
---[NoImage] x264 [info]: i4 v,h,dc,ddl,ddr,vr,hd,vl,hu: 30% 7% 7% 8% 11% 11% 9% 9% 9%
---[NoImage] x264 [info]: i8c dc,h,v,p: 41% 23% 23% 13%
---[NoImage] x264 [info]: Weighted P-Frames: Y:3.9% UV:1.5%
---[NoImage] x264 [info]: ref P L0: 43.9% 8.3% 17.9% 7.5% 5.9% 4.2% 3.8% 2.0% 1.9% 1.5% 1.5% 1.4% 0.2% 0.0%
---[NoImage] x264 [info]: ref B L0: 66.7% 13.4% 7.2% 3.6% 2.6% 2.1% 1.8% 1.0% 0.8% 0.5% 0.2%
---[NoImage] x264 [info]: ref B L1: 90.3% 9.7%
---[NoImage] x264 [info]: kb/s:1482.94
---[NoImage] encoded 154609 frames, 15.54 fps, 1482.94 kb/s
picpicpic

Этот торрент недоступен для скачивания без регистрации, однако доступен по публичной magnet-ссылке (источники с публичных трекеров). Перед использованием ссылки прочтите, пожалуйста Пользовательское соглашение, а также как можно дольше оставайтесь на раздаче! Для того, чтобы скачать сам торрент-файл (который видит больше источников), а также для того, чтобы поблагодарить релизера, вам необходимо зарегистрироваться. Если регистрироваться лень - вы можете также попробовать скачать релиз по нашим партнерским ссылкам ниже.

[underverse.su].t23126.torrent
Трекер: Зарегистрирован   [ 08.01.2013 11:58 ]  

Статус: проверено (by Garnett at 08.01.2013 18:26)
Поблагодарили: пока никто не поблагодарил...
Тип торрента: публичный - доступные источники с открытых трекеров: 
Размер: 1,45 GB (занимает 1/3 DVDR, для записи нужно 1 болванка DVDR/RW)
 
 
Похожие темы
Форум Тема Автор Торрент Отв. Посл. сооб.
# Зарубежное кино [DVDRip, Low-Res HDRip, и т.д.] Порочная страсть / Arbitrage (Николас Джареки) [2012 г., триллер, драма, HDRip-AVC] VO + Original Garnett
0 | 0

1 | 638

22

10.10.2012 22:37

Зарубежное кино [DVDRip, Low-Res HDRip, и т.д.] Порочная страсть / Arbitrage (Николас Джареки) [2012 г., Триллер, драма,, HDRip] Dub 90ytr90
2 | 0

0 | 350

4

06.12.2012 20:39

Зарубежное кино [DVDRip, Low-Res HDRip, и т.д.] Порочная страсть / Arbitrage (Николас Джареки) [2012 г., Триллер, драма, BDRip] Dub + Original 90ytr90
0 | 0

0 | 712

4

10.12.2012 15:06

Зарубежное кино [DVDRip, Low-Res HDRip, и т.д.] Порочная страсть / Arbitrage (Николас Джареки) [2012, триллер, драма, HDRip] Dub Garnett
4 | 0

0 | 497

7

11.12.2012 06:01

Зарубежное кино [DVDRip, Low-Res HDRip, и т.д.] Порочная страсть / Arbitrage (Николас Джареки / Nicholas Jarecki) [2012, триллер, драма, BDRip-AVC] Dub, Original (Eng) + Sub (Rus, Eng) Garnett
12 | 0

0 | 442

6

08.01.2013 11:56

* Зарубежное кино [DVD / HDDVD / BD / Remux] Порочная страсть / Arbitrage (Николас Джареки) [2012 г., триллер, драма, DVD9] R5 90ytr90

0 | 480

06.12.2012 20:06

Зарубежное кино [HDDVDRip / BDRip / WEB-DL / HDTV 1080/720р] Порочная страсть / Arbitrage (Николас Джареки) [2012 г., Триллер, драма, BDRip 720p] Dub + Original 90ytr90
0 | 0

0 | 597

10

12.12.2012 20:07


Яндекс.Метрика powered by Sphinx


В Н И М А Н И Е
Сайт не распространяет и не хранит электронные версии произведений, а лишь бесплатно и без коммерческой выгоды (не требуя взамен платы,
SMS и т.д.) предоставляет доступ к создаваемому пользователями каталогу ссылок на торрент-файлы, которые содержат только списки хеш-сумм.
Убедительная просьба с жалобами обращаться напрямую к пользователю, разместившему торрент файл.

Вверх