Loading...
Error

Что-то не так с Кевином / We Need to Talk About Kevin (Линн Рэмси / Lynne Ramsay) [2011 г., триллер, драма, HDRip-AVC] DVO

 
Автор Сообщение

Garnett Пол:Муж

08-Янв-2013 11:52



Что-то не так с Кевином / We Need to Talk About Kevin


Год выпуска: 2011
Производство: США, Великобритания
Жанр: триллер, драма
Продолжительность: 01:51:58
Перевод: Профессиональный (двухголосый, закадровый) [Пётр Гланц и Инна Королёвa]
Субтитры: отсутствуют
Режиссер: Линн Рэмси / Lynne Ramsay
В ролях
Тильда Суинтон, Джон Си Райли, Эзра Миллер, Джаспер Ньюэлл, Рок Дер, Эшли Герасимович, Шаван Фэллон, Алекс Манетт, Кеннет Франклин, Лесли Лайлс и др.
Описание
Отложив в сторону все личные и профессиональные амбиции, Ева посвящает жизнь рождению и воспитанию сына. Однако их отношения с самого начала оказываются крайне сложными. В пятнадцать лет Кевин совершает непоправимое, и Ева мучается сознанием ответственности и собственной вины. Достаточно ли она любила своего сына? Какова доля ее вины в происшедшем?..
Качество: HDRip-AVC | Сэмпл
Формат: MKV
Видео кодек: H.264
Аудио кодек: AC3
Видео: 1040x432, 24.000 fps, 1675 Kbps
Аудио: 48.0 KHz, 2 ch, 192 Kbps

Код:

General
Unique ID                                : 247303299824520713100552595717084066768 (0xBA0CE20F6B601ADE9AB7B1BF73E2B3D0)
Complete name                            : C:\Users\SaNyA\Desktop\We Need to Talk About Kevin.2011.HDRip-AVC.zyyx.mkv
Format                                   : Matroska
Format version                           : Version 2
File size                                : 1.46 GiB
Duration                                 : 1h 51mn
Overall bit rate                         : 1 868 Kbps
Encoded date                             : UTC 2012-02-05 23:02:45
Writing application                      : mkvmerge v4.6.0 ('Still Crazy After All These Years') сборка от Mar 13 2011 18:33:29
Writing library                          : libebml v1.2.0 + libmatroska v1.1.0
Video
ID                                       : 1
Format                                   : AVC
Format/Info                              : Advanced Video Codec
Format profile                           : High@L4.1
Format settings, CABAC                   : Yes
Format settings, ReFrames                : 16 frames
Codec ID                                 : V_MPEG4/ISO/AVC
Duration                                 : 1h 51mn
Bit rate                                 : 1 675 Kbps
Width                                    : 1 040 pixels
Height                                   : 432 pixels
Display aspect ratio                     : 2.40:1
Frame rate mode                          : Constant
Frame rate                               : 24.000 fps
Color space                              : YUV
Chroma subsampling                       : 4:2:0
Bit depth                                : 8 bits
Scan type                                : Progressive
Bits/(Pixel*Frame)                       : 0.155
Stream size                              : 1.28 GiB (88%)
Writing library                          : x264 core 114 r1924 08d04a4
Encoding settings                        : cabac=1 / ref=16 / deblock=1:-2:-1 / analyse=0x3:0x133 / me=umh / subme=9 / psy=1 / psy_rd=1.00:0.20 / mixed_ref=1 / me_range=32 / chroma_me=1 / trellis=2 / 8x8dct=1 / cqm=0 / deadzone=21,11 / fast_pskip=0 / chroma_qp_offset=-3 / threads=6 / sliced_threads=0 / nr=0 / decimate=1 / interlaced=0 / constrained_intra=0 / bframes=8 / b_pyramid=2 / b_adapt=2 / b_bias=0 / direct=3 / weightb=1 / open_gop=0 / weightp=2 / keyint=250 / keyint_min=23 / scenecut=40 / intra_refresh=0 / rc_lookahead=60 / rc=2pass / mbtree=1 / bitrate=1675 / ratetol=1.0 / qcomp=0.60 / qpmin=0 / qpmax=69 / qpstep=4 / cplxblur=20.0 / qblur=0.5 / ip_ratio=1.40 / aq=1:1.00
Default                                  : Yes
Forced                                   : No
Audio
ID                                       : 2
Format                                   : AC-3
Format/Info                              : Audio Coding 3
Mode extension                           : CM (complete main)
Format settings, Endianness              : Big
Codec ID                                 : A_AC3
Duration                                 : 1h 51mn
Bit rate mode                            : Constant
Bit rate                                 : 192 Kbps
Channel(s)                               : 2 channels
Channel positions                        : Front: L R
Sampling rate                            : 48.0 KHz
Bit depth                                : 16 bits
Compression mode                         : Lossy
Stream size                              : 154 MiB (10%)
Default                                  : Yes
Forced                                   : No
picpicpic
Download Для того, чтобы скачать этот торрент, необходимо залогиниться! Если у Вас нет логина на нашем трекере - зарегистрируйтесь, и он у Вас будет.

Как качать с торрент трекера  ·   Что такое torrent (торрент)  ·   Рейтинг и ограничения

 
Похожие темы
Форум Тема Автор Торрент Отв. Посл. сооб.
Зарубежное кино [DVDRip, Low-Res HDRip, и т.д.] Что-то не так с Кевином / We Need to Talk About Kevin (Линн Рэмси) [2011 г., Триллер, драма, DVDRip] theatre
0 | 0

0 | 506

4

06.02.2012 14:08

Зарубежное кино [DVDRip, Low-Res HDRip, и т.д.] Что-то не так с Кевином / We Need to Talk About Kevin (Линн Рэмси) [2011 г., триллер, драма, BDRip] MVO Jimmy
17 | 0

0 | 748

20

10.12.2012 15:24

Зарубежное кино [DVDRip, Low-Res HDRip, и т.д.] Что-то не так с Кевином / We Need to Talk About Kevin (Линн Рэмси) [2011, Триллер, драма, HDRip] DVO (П.Гланц и И.Королева) Garnett
1 | 0

0 | 2546

3

07.01.2013 18:18


Яндекс.Метрика powered by Sphinx


В Н И М А Н И Е
Сайт не распространяет и не хранит электронные версии произведений, а лишь бесплатно и без коммерческой выгоды (не требуя взамен платы,
SMS и т.д.) предоставляет доступ к создаваемому пользователями каталогу ссылок на торрент-файлы, которые содержат только списки хеш-сумм.
Убедительная просьба с жалобами обращаться напрямую к пользователю, разместившему торрент файл.

Вверх