Loading...
Error

Бэйтаун вне закона / Изгои из Бэйтауна / The Baytown Outlaws (Бэрри Баттлс / Barry Battles) [2012, США, боевик, комедия, криминал, BDRip] MVO (ViruseProject)

Статистика раздачи
Размер:  745 MB   |    Зарегистрирован:  3 года 10 месяцев   |    Скачан:  10 раз

Полного источника не было: 2 года 4 месяца

Сидов:  0  |  0 KB/s  ]   Личеров:  0  |  0 KB/s  ]

* - сиды/пиры с внешних источников

   
 
Автор Сообщение

Garnett Пол:Муж

08-Янв-2013 11:41

Бэйтаун вне закона / Изгои из Бэйтауна / The Baytown Outlaws

Год выпуска: 2012
Страна: США
Жанр: боевик, комедия, криминал
Продолжительность: 01:38:38
Перевод: Любительский (многоголосый закадровый) ViruseProject
Субтитры: нет
Режиссёр: Бэрри Баттлс / Barry Battles
В ролях: Андре Брогер (Sherriff Henry Millard), Клейн Кроуфорд (Brick Oodie), Дэниэл Кадмор (Lincoln Oodie), Трэвис Фиммел (McQueen Oodie), Ева Лонгория (Celeste), Пол Уэсли (Reese), Билли Боб Торнтон, Томас Броди Сэнгстер (Rob), Зои Белл (Rose), Натали Мартинез (Ariana), Серинда Свон, Агнес Бракнер (Mona)
Описание: События развернутся вокруг трех братьев, которые всегда любили конфликты и хорошо подраться. Их нанимают для того, чтобы вернуть одной бабушке похищенного паренька-инвалида. Парни входят во вкус и проливают реки чужой крови, в основном похитителей.

Качество видео: BDRip [Спасибо arxivariys]
Формат: AVI
Видео: XviD, 656x272 (2.40:1), 23.976 fps, ~918 kbps, 0.215 bpp
Аудио: Русский: MP3, 48 kHz, 2 ch, ~128 kbps
Озвучка:
*Ёлка (Елена Емельянова)
*marviha (Марина Видякина)
*Solncekleshka (Татьяна Романовская)
*Kenum (Владислав Данилов)
*Алексей Кизуб
*Дмитрий Кравченко
*Pro-Snip (Дмитрий Иванов)
*Vincent_2009 (Михаил Чадов)
*48 kbps (Сергей Павловский)
*IgVin (Игорь Головин)
Перевод: kunfil (Федор Погорелов)
Сведение звука: viruse (Виталий Емельянов)
General
Complete name : J:\torrents\The Baytown Outlaws 2012\The.Baytown.Outlaws.2012.BDRip.XviD.MVO.745MB.avi
Format : AVI
Format/Info : Audio Video Interleave
File size : 745 MiB
Duration : 1h 38mn
Overall bit rate : 1 056 Kbps
Writing application : VirtualDubMod 1.5.10.3 | www.virtualdub-fr.org || (build 2550/release)
Writing library : VirtualDubMod build 2550/release
Video
ID : 0
Format : MPEG-4 Visual
Format profile : Advanced Simple@L5
Format settings, BVOP : 1
Format settings, QPel : No
Format settings, GMC : No warppoints
Format settings, Matrix : Custom
Codec ID : XVID
Codec ID/Hint : XviD
Duration : 1h 38mn
Bit rate : 919 Kbps
Width : 656 pixels
Height : 272 pixels
Display aspect ratio : 2.40:1
Frame rate : 23.976 fps
Color space : YUV
Chroma subsampling : 4:2:0
Bit depth : 8 bits
Scan type : Progressive
Compression mode : Lossy
Bits/(Pixel*Frame) : 0.215
Stream size : 648 MiB (87%)
Writing library : XviD 65
Audio
ID : 1
Format : MPEG Audio
Format version : Version 1
Format profile : Layer 3
Mode : Joint stereo
Codec ID : 55
Codec ID/Hint : MP3
Duration : 1h 38mn
Bit rate mode : Constant
Bit rate : 128 Kbps
Channel(s) : 2 channels
Sampling rate : 48.0 KHz
Compression mode : Lossy
Stream size : 90.3 MiB (12%)
Alignment : Aligned on interleaves
Interleave, duration : 42 ms (1.00 video frame)
Interleave, preload duration : 504 ms
Writing library : LAME3.99r
Encoding settings : -m j -V 4 -q 0 -lowpass 17 -b 128

picpicpic

Этот торрент недоступен для скачивания без регистрации, однако доступен по публичной magnet-ссылке (источники с публичных трекеров). Перед использованием ссылки прочтите, пожалуйста Пользовательское соглашение, а также как можно дольше оставайтесь на раздаче! Для того, чтобы скачать сам торрент-файл (который видит больше источников), а также для того, чтобы поблагодарить релизера, вам необходимо зарегистрироваться. Если регистрироваться лень - вы можете также попробовать скачать релиз по нашим партнерским ссылкам ниже.

[underverse.su].t23121.torrent
Трекер: Зарегистрирован   [ 08.01.2013 11:41 ]  

Статус: проверено (by Garnett at 08.01.2013 18:23)
Поблагодарили: пока никто не поблагодарил...
Тип торрента: публичный - доступные источники с открытых трекеров: 
Размер: 745 MB (занимает 0,17 DVDR, для записи нужно 1 болванка DVDR/RW)
 
 
Похожие темы
Форум Тема Автор Торрент Отв. Посл. сооб.
Зарубежное кино [DVDRip, Low-Res HDRip, и т.д.] Бэйтаун вне закона / Изгои из Бэйтауна / The Baytown Outlaws (Бэрри Баттлс) [2012 г., боевик, комедия, криминал, HDRip] DVO (den904, DeadSno) 90ytr90
52 | 4

0 | 889

28

14.12.2012 13:57

Зарубежное кино [DVDRip, Low-Res HDRip, и т.д.] Бэйтаун вне закона / Изгои из Бэйтауна / The Baytown Outlaws (Бэрри Баттлс) [2012 г., боевик, комедия, криминал, HDRip] DVO (den904, DeadSno) 90ytr90
16 | 1

0 | 363

3

14.12.2012 14:01

Зарубежное кино [DVDRip, Low-Res HDRip, и т.д.] Бэйтаун вне закона / Изгои из Бэйтауна / The Baytown Outlaws (Бэрри Баттлс) [2012 г., криминальный, боевик, комедия, HDRip] MVO (ViruseProject) Доктор Ватсон
8 | 0

0 | 1141

14

07.01.2013 09:32

Зарубежное кино [DVDRip, Low-Res HDRip, и т.д.] Бэйтаун вне закона / Изгои из Бэйтауна / The Baytown Outlaws (Бэрри Баттлс) [2012 г., боевик, комедия, криминал, HDRip] MVO (НТВ+) 90ytr90
18 | 0

0 | 268

3

03.01.2014 08:21

Зарубежное кино [DVDRip, Low-Res HDRip, и т.д.] Бэйтаун вне закона / Изгои из Бэйтауна / The Baytown Outlaws (Бэрри Баттлс / Barry Battles) [2012 г., боевик, комедия, криминал, BDRip-AVC] MVO + Sub (Rus, Eng) 90ytr90
0 | 0

0 | 1321

10

17.02.2014 16:50

Зарубежное кино [DVDRip, Low-Res HDRip, и т.д.] Бэйтаун вне закона / Изгои из Бэйтауна / The Baytown Outlaws (Бэрри Баттлс / Barry Battles) [2012 г., боевик, комедия, криминал, BDRip] 2xMVO + Original (Eng) + Sub (Rus, Eng) 90ytr90
0 | 0

0 | 339

2

06.04.2014 12:32

Зарубежное кино [DVDRip, Low-Res HDRip, и т.д.] Бэйтаун вне закона / Изгои из Бэйтауна / The Baytown Outlaws (Бэрри Баттлс / Barry Battles) [2012 г., боевик, комедия, криминал, BDRip] MVO 90ytr90
27 | 1

0 | 372

5

06.04.2014 12:44

Зарубежное кино [DVD / HDDVD / BD / Remux] Бэйтаун вне закона / Изгои из Бэйтауна / The Baytown Outlaws (Бэрри Баттлс) [2012 г., Боевик, комедия, криминал, DVD-9] Чертёнок
2 | 0

0 | 1047

9

09.03.2013 21:01


Яндекс.Метрика powered by Sphinx


В Н И М А Н И Е
Сайт не распространяет и не хранит электронные версии произведений, а лишь бесплатно и без коммерческой выгоды (не требуя взамен платы,
SMS и т.д.) предоставляет доступ к создаваемому пользователями каталогу ссылок на торрент-файлы, которые содержат только списки хеш-сумм.
Убедительная просьба с жалобами обращаться напрямую к пользователю, разместившему торрент файл.

Вверх