Loading...
Error

Держись, Чарли! Это Рождество! / Good Luck Charlie, It's Christmas! (Арлин Санфорд / Arlene Sanford) [2011, комедия, семейный, HDTVRip] Dub

Статистика раздачи
Размер:  1,37 GB   |    Зарегистрирован:  3 года 10 месяцев   |    Скачан:  16 раз

Полного источника не было: 1 год 11 месяцев

Сидов:  0  |  0 KB/s  ]   Личеров:  0  |  0 KB/s  ]

* - сиды/пиры с внешних источников

   
 
Автор Сообщение

Garnett Пол:Муж

08-Янв-2013 11:34

Держись, Чарли! Это Рождество! Good Luck Charlie, It's Christmas!
Страна: США
Жанр: комедия, семейный
Год выпуска: 2011
Продолжительность: 01:20:10
Перевод: Профессиональный (полное дублирование)
Режиссер: Арлин Санфорд / Arlene Sanford
В ролях: Бриджит Мендлер , Ли-Эллин Бейкер , Брэдли Стивен Перри , Миа Талерико , Эрик Аллан Крамер , Джейсон Долли , Дебра Монк , Майкл Каган , Эбби Кобб , Ирина Обрезкова , Памела Данлэп , Дэвид Уэллс
Описание: Семья Тедди Данкана отправляется в путешествие из своего родного дома в Денвере в Палм Спрингс, где живут родители миссис Данкан. Где-то между Денвером и Ютой они заблудились, но их согласилась подвезти до Лас-Вегаса пожилая чета, ехавшая из Розвелла. В пути оказалось, что эти люди совершенно уверены, что их похищали инопланетяне. И это всего лишь начало приключений семьи Данкан...
Качество: HDTVRip (Исходник HDTV 720p)
Контейнер: AVI
Видео: XviD, 720x400 (16:9), 2242 kbps, 23,976 fps, 0,325 bpp
Аудио: AC3 / 2.0 / 48 kHz / 192 kbps / 16 bit
General
Complete name : F:\Good.Luck.Charlie.Its.Christmas.2011.HDTVRip.avi
Format : AVI
Format/Info : Audio Video Interleave
File size : 1.37 GiB
Duration : 1h 20mn
Overall bit rate : 2 444 Kbps
Writing application : VirtualDubMod 1.5.10.3 | www.virtualdub-fr.org || (build 2550/release)
Writing library : VirtualDubMod build 2550/release
Video
ID : 0
Format : MPEG-4 Visual
Format profile : Advanced Simple@L5
Format settings, BVOP : 2
Format settings, QPel : No
Format settings, GMC : No warppoints
Format settings, Matrix : Default (MPEG)
Codec ID : XVID
Codec ID/Hint : XviD
Duration : 1h 20mn
Bit rate : 2 243 Kbps
Width : 720 pixels
Height : 400 pixels
Display aspect ratio : 16:9
Frame rate : 23.976 fps
Color space : YUV
Chroma subsampling : 4:2:0
Bit depth : 8 bits
Scan type : Progressive
Compression mode : Lossy
Bits/(Pixel*Frame) : 0.325
Stream size : 1.26 GiB (92%)
Writing library : XviD 65
Audio
ID : 1
Format : AC-3
Format/Info : Audio Coding 3
Mode extension : CM (complete main)
Codec ID : 2000
Duration : 1h 20mn
Bit rate mode : Constant
Bit rate : 192 Kbps
Channel(s) : 2 channels
Channel positions : Front: L R
Sampling rate : 48.0 KHz
Bit depth : 16 bits
Compression mode : Lossy
Stream size : 110 MiB (8%)
Alignment : Split accross interleaves
Interleave, duration : 42 ms (1.00 video frame)
Interleave, preload duration : 500 ms
picpicpic

Этот торрент недоступен для скачивания без регистрации, однако доступен по публичной magnet-ссылке (источники с публичных трекеров). Перед использованием ссылки прочтите, пожалуйста Пользовательское соглашение, а также как можно дольше оставайтесь на раздаче! Для того, чтобы скачать сам торрент-файл (который видит больше источников), а также для того, чтобы поблагодарить релизера, вам необходимо зарегистрироваться. Если регистрироваться лень - вы можете также попробовать скачать релиз по нашим партнерским ссылкам ниже.

[underverse.su].t23119.torrent
Трекер: Зарегистрирован   [ 08.01.2013 11:34 ]  

Статус: проверено (by Garnett at 08.01.2013 18:24)
Поблагодарили: пока никто не поблагодарил...
Тип торрента: публичный - доступные источники с открытых трекеров: 
Размер: 1,37 GB (занимает 0,31 DVDR, для записи нужно 1 болванка DVDR/RW)
 
 

Яндекс.Метрика powered by Sphinx


В Н И М А Н И Е
Сайт не распространяет и не хранит электронные версии произведений, а лишь бесплатно и без коммерческой выгоды (не требуя взамен платы,
SMS и т.д.) предоставляет доступ к создаваемому пользователями каталогу ссылок на торрент-файлы, которые содержат только списки хеш-сумм.
Убедительная просьба с жалобами обращаться напрямую к пользователю, разместившему торрент файл.

Вверх