Loading...
Error

Я, Алекс Кросс / Alex Cross (Роб Коэн / Rob Cohen) [2012, боевик, триллер, криминал, BDRip-AVC] Dub + Original (Eng) + Sub (Rus, Eng, Fin)

Статистика раздачи
Размер:  2,18 GB   |    Зарегистрирован:  3 года 11 месяцев   |    Скачан:  49 раз

Полного источника не было: 11 месяцев

Сидов:  0  |  0 KB/s  ]   Личеров:  0  |  0 KB/s  ]

* - сиды/пиры с внешних источников

   
 
Автор Сообщение

Garnett Пол:Муж

08-Янв-2013 11:16

Я, Алекс Кросс / Alex Cross
Страна: США
Студия: Envision Entertainment Corporation, IAC Productions, James Patterson Entertainment, QED International
Жанр: боевик, триллер, криминал
Год выпуска: 2012
Продолжительность: 01:41:23
Перевод: Профессиональный (дублированный)
Оригинальная аудиодорожка: английская
Режиссер: Роб Коэн / Rob Cohen
В ролях: Тайлер Перри, Рэйчел Николс, Мэттью Фокс, Эдвард Бёрнс, Жан Рено, Джанкарло Эспозито, Джон К. МакГинли, Кармен Эджого, Сисели Тайсон, Чад Линдберг
Описание: Да, он не Шерлок Холмс. Он - Алекс Кросс. Доктор, мастер дедукции и все его враги - всегда очень опасны. Это логично, ведь Кросс самый лучший детектив в полиции Детройта. Вот и сейчас - стоило объявиться очередному наёмнику-маньяку со своей первой жертвой и... уже вторая его цель Кроссом мгновенно вычислена и защищена. Но наёмник оказался капризным и своенравным: он решил мстить за сорванный тщательно и любовно разработанный им план. И, прежде чем взяться за третью жертву, расправился с женой и коллегой Кросса, подписав тем самым себе смертный приговор...
Релиз: fanatus
Качество видео: BDRip (AVC)
Исходник: Blu-ray disc 1080p (BLUEBIRD)
Контейнер: MKV
Видео: MPEG-4 AVC, 2181 kbps , 1024x576 (16:9), 24.000 fps, 0.154 bit/pixel
Аудио 1: русский (AC3, 6 ch, 48 kHz, 448 kbps)
Аудио 2: английский (AC3, 6 ch, 48 kHz, 448 kbps)
Cубтитры: русские, английские, финские
Формат субтитров: softsub (SRT)
Главы: есть
General
Unique ID : 231717434091200524477256983615281123216 (0xAE53278D00B71144B1C6A3DDE2C14F90)
Complete name : D:\Ja,Aleks.Kross.2012.x264.BDRip.(AVC).fanatus.mkv
Format : Matroska
Format version : Version 2
File size : 2.18 GiB
Duration : 1h 41mn
Overall bit rate : 3 078 Kbps
Movie name : Alex Cross (2012) - fanatus
Encoded date : UTC 2013-01-07 14:10:57
Writing application : mkvmerge v3.4.0 ('Rapunzel') сборка от May 15 2010 09:38:20
Writing library : libebml v0.8.0 + libmatroska v0.9.0
Video
ID : 1
Format : AVC
Format/Info : Advanced Video Codec
Format profile : High@L4.1
Format settings, CABAC : Yes
Format settings, ReFrames : 9 frames
Codec ID : V_MPEG4/ISO/AVC
Duration : 1h 41mn
Bit rate : 2 181 Kbps
Width : 1 024 pixels
Height : 576 pixels
Display aspect ratio : 16:9
Frame rate : 24.000 fps
Color space : YUV
Chroma subsampling : 4:2:0
Bit depth : 8 bits
Scan type : Progressive
Bits/(Pixel*Frame) : 0.154
Stream size : 1.50 GiB (69%)
Title : Alex Cross (2012)
Writing library : x264 core 128 r2216 198a7ea
Encoding settings : cabac=1 / ref=9 / deblock=1:-2:-2 / analyse=0x3:0x113 / me=umh / subme=11 / psy=1 / psy_rd=1.20:0.10 / mixed_ref=1 / me_range=48 / chroma_me=1 / trellis=2 / 8x8dct=1 / cqm=0 / deadzone=21,11 / fast_pskip=0 / chroma_qp_offset=-3 / threads=16 / lookahead_threads=2 / sliced_threads=0 / nr=0 / decimate=0 / interlaced=0 / bluray_compat=0 / constrained_intra=0 / bframes=14 / b_pyramid=2 / b_adapt=2 / b_bias=0 / direct=3 / weightb=1 / open_gop=0 / weightp=2 / keyint=240 / keyint_min=24 / scenecut=40 / intra_refresh=0 / rc_lookahead=40 / rc=2pass / mbtree=0 / bitrate=2181 / ratetol=1.0 / qcomp=0.60 / qpmin=10 / qpmax=51 / qpstep=4 / cplxblur=20.0 / qblur=0.5 / vbv_maxrate=50000 / vbv_bufsize=62500 / nal_hrd=none / ip_ratio=1.40 / pb_ratio=1.30 / aq=1:0.80 / zones=139116,145758,q=34
Language : English
Default : Yes
Forced : No
Matrix coefficients : BT.709-5, BT.1361, IEC 61966-2-4 709, SMPTE RP177
Audio #1
ID : 2
Format : AC-3
Format/Info : Audio Coding 3
Mode extension : CM (complete main)
Format settings, Endianness : Big
Codec ID : A_AC3
Duration : 1h 41mn
Bit rate mode : Constant
Bit rate : 448 Kbps
Channel(s) : 6 channels
Channel positions : Front: L C R, Side: L R, LFE
Sampling rate : 48.0 KHz
Bit depth : 16 bits
Compression mode : Lossy
Stream size : 325 MiB (15%)
Title : Dub
Language : Russian
Default : Yes
Forced : Yes
Audio #2
ID : 3
Format : AC-3
Format/Info : Audio Coding 3
Mode extension : CM (complete main)
Format settings, Endianness : Big
Codec ID : A_AC3
Duration : 1h 41mn
Bit rate mode : Constant
Bit rate : 448 Kbps
Channel(s) : 6 channels
Channel positions : Front: L C R, Side: L R, LFE
Sampling rate : 48.0 KHz
Bit depth : 16 bits
Compression mode : Lossy
Stream size : 325 MiB (15%)
Title : Original
Language : English
Default : No
Forced : No
Text #1
ID : 4
Format : UTF-8
Codec ID : S_TEXT/UTF8
Codec ID/Info : UTF-8 Plain Text
Language : Russian
Default : No
Forced : No
Text #2
ID : 5
Format : UTF-8
Codec ID : S_TEXT/UTF8
Codec ID/Info : UTF-8 Plain Text
Language : English
Default : No
Forced : No
Text #3
ID : 6
Format : UTF-8
Codec ID : S_TEXT/UTF8
Codec ID/Info : UTF-8 Plain Text
Language : Finnish
Default : No
Forced : No
Menu
00:00:00.000 : en:Chapter 01
00:05:00.000 : en:Chapter 02
00:10:00.000 : en:Chapter 03
00:15:00.000 : en:Chapter 04
00:20:00.000 : en:Chapter 05
00:25:00.000 : en:Chapter 06
00:30:00.000 : en:Chapter 07
00:35:00.000 : en:Chapter 08
00:40:00.000 : en:Chapter 09
00:45:00.000 : en:Chapter 10
00:50:00.000 : en:Chapter 11
00:55:00.000 : en:Chapter 12
01:00:00.000 : en:Chapter 13
01:05:00.000 : en:Chapter 14
01:10:00.000 : en:Chapter 15
01:15:00.000 : en:Chapter 16
01:20:00.000 : en:Chapter 17
01:25:00.000 : en:Chapter 18
01:30:00.000 : en:Chapter 19
01:35:00.000 : en:Chapter 20
01:40:00.000 : en:Chapter 21
-[NoImage] raw [info]: 1024x576p 1:1 @ 24/1 fps (cfr)
-[NoImage] x264 [info]: using SAR=1/1
-[NoImage] x264 [info]: using cpu capabilities: MMX2 SSE2Fast FastShuffle SSEMisalign LZCNT
-[NoImage] x264 [info]: profile High, level 4.1
-[NoImage]
-[NoImage] x264 [info]: frame I:954 Avg QP:19.93 size: 65408
-[NoImage] x264 [info]: frame P:32111 Avg QP:23.75 size: 22208
-[NoImage] x264 [info]: frame B:112936 Avg QP:24.83 size: 7807
-[NoImage] x264 [info]: consecutive B-frames: 3.1% 3.7% 8.2% 15.3% 13.2% 40.4% 4.5% 1.4% 3.5% 1.1% 1.9% 1.0% 1.2% 0.6% 0.9%
-[NoImage] x264 [info]: mb I I16..4: 7.9% 78.5% 13.6%
-[NoImage] x264 [info]: mb P I16..4: 0.9% 7.4% 1.1% P16..4: 34.1% 38.4% 9.2% 0.0% 0.0% skip: 8.9%
-[NoImage] x264 [info]: mb B I16..4: 0.1% 0.5% 0.1% B16..8: 43.2% 17.1% 2.3% direct: 4.2% skip:32.5% L0:44.2% L1:50.4% BI: 5.4%
-[NoImage] x264 [info]: 8x8 transform intra:78.6% inter:64.6%
-[NoImage] x264 [info]: direct mvs spatial:98.0% temporal:2.0%
-[NoImage] x264 [info]: coded y,uvDC,uvAC intra: 86.8% 74.4% 42.6% inter: 24.8% 19.1% 4.4%
-[NoImage] x264 [info]: i16 v,h,dc,p: 37% 21% 7% 35%
-[NoImage] x264 [info]: i8 v,h,dc,ddl,ddr,vr,hd,vl,hu: 7% 5% 5% 12% 18% 16% 15% 12% 11%
-[NoImage] x264 [info]: i4 v,h,dc,ddl,ddr,vr,hd,vl,hu: 11% 7% 4% 9% 16% 16% 15% 12% 11%
-[NoImage] x264 [info]: i8c dc,h,v,p: 36% 25% 20% 20%
-[NoImage] x264 [info]: Weighted P-Frames: Y:2.9% UV:1.3%
-[NoImage] x264 [info]: ref P L0: 47.5% 10.5% 18.2% 6.4% 5.5% 3.8% 3.6% 2.0% 2.1% 0.4% 0.0%
-[NoImage] x264 [info]: ref B L0: 73.2% 12.4% 6.2% 3.1% 2.1% 1.8% 0.9% 0.3%
-[NoImage] x264 [info]: ref B L1: 92.3% 7.7%
-[NoImage] x264 [info]: kb/s:2179.31
-[NoImage] encoded 146001 frames, 9.63 fps, 2179.31 kb/s
picpicpic

Этот торрент недоступен для скачивания без регистрации, однако доступен по публичной magnet-ссылке (источники с публичных трекеров). Перед использованием ссылки прочтите, пожалуйста Пользовательское соглашение, а также как можно дольше оставайтесь на раздаче! Для того, чтобы скачать сам торрент-файл (который видит больше источников), а также для того, чтобы поблагодарить релизера, вам необходимо зарегистрироваться. Если регистрироваться лень - вы можете также попробовать скачать релиз по нашим партнерским ссылкам ниже.

[underverse.su].t23117.torrent
Трекер: Зарегистрирован   [ 08.01.2013 11:16 ]  

Статус: проверено (by Garnett at 08.01.2013 18:23)
Поблагодарили: 4 человека
Тип торрента: публичный - доступные источники с открытых трекеров: 
Размер: 2,18 GB (занимает 1/2 DVDR, для записи нужно 1 болванка DVDR/RW)
 
 
Похожие темы
Форум Тема Автор Торрент Отв. Посл. сооб.
Зарубежное кино [DVDRip, Low-Res HDRip, и т.д.] Я, Алекс Кросс / Alex Cross (Роб Коэн) [2012 г., боевик, триллер, криминал, детектив, HDRip] Dub 90ytr90
9 | 0

2 | 532

11

07.12.2012 19:38

Зарубежное кино [DVDRip, Low-Res HDRip, и т.д.] Я, Алекс Кросс / Alex Cross (Роб Коэн) [2012 г., боевик, триллер, криминал, детектив, BDRip] Dub 90ytr90
16 | 0

4 | 1917

217

12.12.2012 16:15

Зарубежное кино [DVDRip, Low-Res HDRip, и т.д.] Я, Алекс Кросс / Alex Cross (Роб Коэн) [2012 г., боевик, триллер, криминал, детектив, BDRip-AVC] Dub 90ytr90
5 | 0

0 | 408

7

25.12.2012 10:21

Зарубежное кино [DVDRip, Low-Res HDRip, и т.д.] Я, Алекс Кросс / Alex Cross (Роб Коэн / Rob Cohen) [2012, боевик, триллер, криминал, BDRip-AVC] Dub + Sub (Rus, Eng, Fin) Garnett
90 | 0

0 | 440

9

08.01.2013 11:37

Зарубежное кино [DVDRip, Low-Res HDRip, и т.д.] Я, Алекс Кросс / Alex Cross (Роб Коэн / Rob Cohen) [2012 г., боевик, триллер, криминал, детектив, BDRip] [US-Transfer] Dub + Original + Sub (Rus, Eng) 90ytr90
0 | 0

0 | 413

5

31.12.2013 05:00

Зарубежное кино [DVD / HDDVD / BD / Remux] Я, Алекс Кросс / Alex Cross (Роб Коэн) [2012 г., боевик, триллер, криминал, детектив, DVD9] R5 90ytr90
1 | 0

0 | 507

5

07.12.2012 19:52

Зарубежное кино [DVD / HDDVD / BD / Remux] Я, Алекс Кросс / Alex Cross (Роб Коэн) [2012, боевик, триллер, криминал, детектив, Blu-ray disc 1080p] Garnett
2 | 0

0 | 755

5

10.12.2012 05:45

Зарубежное кино [HDDVDRip / BDRip / WEB-DL / HDTV 1080/720р] Я, Алекс Кросс / Alex Cross (Роб Коэн) [2012 г., Боевик, Триллер, Криминал, Детектив, BDRip 720p] Dub (RUS, Лицензия) + AVO (RUS, Д. Есарев) + Original (ENG) + Subs (RUS, ENG) Ведьмочка
2 | 0

0 | 293

3

26.09.2014 21:54


Яндекс.Метрика powered by Sphinx


В Н И М А Н И Е
Сайт не распространяет и не хранит электронные версии произведений, а лишь бесплатно и без коммерческой выгоды (не требуя взамен платы,
SMS и т.д.) предоставляет доступ к создаваемому пользователями каталогу ссылок на торрент-файлы, которые содержат только списки хеш-сумм.
Убедительная просьба с жалобами обращаться напрямую к пользователю, разместившему торрент файл.

Вверх