Loading...
Error

Рестлер / The Wrestler (Даррен Аронофски) [2008 г., драма, мелодрама, спорт, BDRip-AVC] Dub + AVO + VO + Original

Статистика раздачи
Размер:  2,64 GB   |    Зарегистрирован:  3 года 11 месяцев   |    Скачан:  0 раз

Полного источника не было: 3 года 3 месяца

Сидов:  0  |  0 KB/s  ]   Личеров:  0  |  0 KB/s  ]

* - сиды/пиры с внешних источников

   
 
Автор Сообщение

dmax90 Пол:Муж

08-Янв-2013 10:50

Рестлер / The Wrestler


Год выпуска: 2008
Жанр: драма, мелодрама, спорт
Страна: США , Франция
Режиссер: Даррен Аронофски
В ролях: Микки Рурк, Мариса Томей, Ивэн Рэйчел Вуд, Марк Марголис, Тодд Бэрри, Уасс М. Стивенс, Джуда Фридлендер, Эрнест Миллер, Дилан Кит Саммерс, Томми Фарра
Сюжет фильма:
Главный герой фильма — Рэнди «Баран» Робинсон — был звездой 80-х, но стал бледной копией самого себя. Получив инфаркт во время одного из матчей, борец услышал от врачей неприятную весть: если он продолжит выступления, то может умереть. Пытаясь начать жизнь заново, Рэнди устроился работать в магазин и налаживал отношения с дочерью. Но уж больно заманчивой была перспектива матча-реванша со старым соперником по кличке Аятолла…

  • Мировая премьера: 5 сентября 2008
  • Российская премьера: 26 марта 2009, «Вольга»

/
Качество видео: BDRip-AVC
Продолжительность: 01:49:31
Формат: mkv
Видео: x264, 1056x440, 2168 kbps
Аудио #1: русский, дублированный, AAC LC 5.1, 292 kbps
Аудио #2: русский, одноголосый закадровый [авторский, Ю.Сербин (ненормативная лексика)], AC3 5.1, 448 kbps
Аудио #3: русский, одноголосый закадровый [любительский, VadimNaz (ненормативная лексика)], MP3 2.0, 256 kbps
Аудио #4: английский, оригинал, AAC LC 5.1, 284 kbps
Субтитры #1: вшитые отключаемые, S_TEXT/UTF8, русский
Субтитры #2: вшитые отключаемые, S_TEXT/UTF8, английский

Код:

General
Complete name                    : G:\Films\The.Wrestler.2008.x264.tRuAVC.mkv
Format                           : Matroska
File size                        : 2.64 GiB
Duration                         : 1h 49mn
Overall bit rate                 : 3 451 Kbps
Encoded date                     : UTC 2010-02-22 21:41:31
Writing application              : mkvmerge v5.9.0 ('On The Loose') built on Dec  9 2012 15:37:01
Writing library                  : libebml v1.3.0 + libmatroska v1.4.0
Cover                            : Yes / Yes

Video
ID                               : 1
Format                           : AVC
Format/Info                      : Advanced Video Codec
Format profile                   : High@L3.2
Format settings, CABAC           : Yes
Format settings, ReFrames        : 10 frames
Muxing mode                      : Container profile=Unknown@3.2
Codec ID                         : V_MPEG4/ISO/AVC
Duration                         : 1h 49mn
Width                            : 1 056 pixels
Height                           : 440 pixels
Display aspect ratio             : 2.400
Frame rate                       : 23.976 fps
Resolution                       : 24 bits
Colorimetry                      : 4:2:0
Scan type                        : Progressive
Title                            : AVC; 1056x440 (2.400); 2078 Kbps; 23,976 fps; 0,187 bpp; tRuAVC@Skazhutin
Writing library                  : x264 core 67 r1139M 1024283
Encoding settings                : cabac=1 / ref=10 / deblock=1:-3:0 / analyse=0x3:0x133 / me=umh / subme=9 / psy_rd=0.9:0.4 / mixed_ref=1 / me_range=32 / chroma_me=1 / trellis=2 / 8x8dct=1 / cqm=0 / deadzone=21,11 / chroma_qp_offset=-4 / threads=6 / nr=0 / decimate=1 / mbaff=0 / bframes=7 / b_pyramid=1 / b_adapt=2 / b_bias=0 / direct=1 / wpredb=1 / keyint=250 / keyint_min=25 / scenecut=40 / rc=crf / crf=21.3 / qcomp=0.60 / qpmin=10 / qpmax=51 / qpstep=4 / ip_ratio=1.40 / pb_ratio=1.30 / aq=1:0.80

Audio #1
ID                               : 2
Format                           : AAC
Format/Info                      : Advanced Audio Codec
Format version                   : Version 4
Format profile                   : LC
Format settings, SBR             : No
Codec ID                         : A_AAC
Duration                         : 1h 49mn
Channel(s)                       : 6 channels
Channel positions                : Front: L C R, Rear: L R, LFE
Sampling rate                    : 48.0 KHz
Resolution                       : 16 bits
Title                            : Dub
Language                         : Russian

Audio #2
ID                               : 3
Format                           : AC-3
Format/Info                      : Audio Coding 3
Codec ID                         : A_AC3
Duration                         : 1h 49mn
Bit rate mode                    : Constant
Bit rate                         : 448 Kbps
Channel(s)                       : 6 channels
Channel positions                : Front: L C R, Surround: L R, LFE
Sampling rate                    : 48.0 KHz
Video delay                      : 16s 0ms
Stream size                      : 351 MiB (13%)
Title                            : Serbin
Language                         : Russian

Audio #3
ID                               : 4
Format                           : MPEG Audio
Format version                   : Version 1
Format profile                   : Layer 3
Codec ID                         : A_MPEG/L3
Codec ID/Hint                    : MP3
Duration                         : 1h 49mn
Bit rate mode                    : Constant
Bit rate                         : 256 Kbps
Channel(s)                       : 2 channels
Sampling rate                    : 44.1 KHz
Resolution                       : 16 bits
Video delay                      : 2s 0ms
Stream size                      : 201 MiB (7%)
Title                            : VadimNaz
Language                         : Russian

Audio #4
ID                               : 5
Format                           : AAC
Format/Info                      : Advanced Audio Codec
Format version                   : Version 4
Format profile                   : LC
Format settings, SBR             : No
Codec ID                         : A_AAC
Duration                         : 1h 49mn
Channel(s)                       : 6 channels
Channel positions                : Front: L C R, Rear: L R, LFE
Sampling rate                    : 48.0 KHz
Resolution                       : 16 bits
Title                            : Orig

Text #1
ID                               : 6
Format                           : UTF-8
Codec ID                         : S_TEXT/UTF8
Codec ID/Info                    : UTF-8 Plain Text
Language                         : Russian

Text #2
ID                               : 7
Format                           : UTF-8
Codec ID                         : S_TEXT/UTF8
Codec ID/Info                    : UTF-8 Plain Text

picpicpicpic
Для увеличения картинки щелкните мышкой по превью

Этот торрент недоступен для скачивания без регистрации, однако доступен по публичной magnet-ссылке (источники с публичных трекеров). Перед использованием ссылки прочтите, пожалуйста Пользовательское соглашение, а также как можно дольше оставайтесь на раздаче! Для того, чтобы скачать сам торрент-файл (который видит больше источников), а также для того, чтобы поблагодарить релизера, вам необходимо зарегистрироваться. Если регистрироваться лень - вы можете также попробовать скачать релиз по нашим партнерским ссылкам ниже.

[underverse.su].t23115.torrent
Трекер: Зарегистрирован   [ 08.01.2013 10:50 ]  

Статус: проверено (by Garnett at 08.01.2013 12:03)
Поблагодарили: пока никто не поблагодарил...
Тип торрента: публичный - доступные источники с открытых трекеров: 
Размер: 2,64 GB (занимает 0,6 DVDR, для записи нужно 1 болванка DVDR/RW)
 
 
Похожие темы
Форум Тема Автор Торрент Отв. Посл. сооб.
* Зарубежное кино [DVDRip, Low-Res HDRip, и т.д.] Рестлер / The Wrestler (Даррен Аронофски) [2008 г., драма, мелодрама, спорт, BDRip] Dub + Original garry

0 | 257

18.12.2012 21:58


Яндекс.Метрика powered by Sphinx


В Н И М А Н И Е
Сайт не распространяет и не хранит электронные версии произведений, а лишь бесплатно и без коммерческой выгоды (не требуя взамен платы,
SMS и т.д.) предоставляет доступ к создаваемому пользователями каталогу ссылок на торрент-файлы, которые содержат только списки хеш-сумм.
Убедительная просьба с жалобами обращаться напрямую к пользователю, разместившему торрент файл.

Вверх