Loading...
Error

Адреналин: Высокое напряжение / Crank: High Voltage (Марк Невелдайн, Брайан Тейлор) [2009 г., фэнтези, боевик, драма, комедия, криминал, BDRip-AVC] Dub + DVO + AVOx2 + Original

Статистика раздачи
Размер:  2,71 GB   |    Зарегистрирован:  3 года 11 месяцев   |    Скачан:  10 раз

Полного источника не было: 2 года 3 месяца

Сидов:  0  |  0 KB/s  ]   Личеров:  0  |  0 KB/s  ]

* - сиды/пиры с внешних источников

   
 
Автор Сообщение

dmax90 Пол:Муж

08-Янв-2013 09:29

Адреналин: Высокое напряжение / Crank: High Voltage


Год выпуска: 2009
Жанр: фэнтези, боевик, драма, комедия, криминал
Страна: США
Режиссер: Марк Невелдайн, Брайан Тейлор
В ролях: Джейсон Стэйтем, Эми Смарт, Дуайт Йоакам, Эфрен Рамирез, Джуланн Чиди Хилл, Хосе Пабло Кантилльо, Рено Уилсон, Кион Янг, Арт Хсю, Джозеф Джулиан Сория
Сюжет фильма:
Он умер, но обещал вернуться! Не чудом, а благодаря современным медицинским технологиям Чев Челиос получает новое сердце и новый шанс отомстить своим врагам. Теперь для постоянной подзарядки ему требуется электрический разряд мощностью не меньше, чем у автомобильного аккумулятора.

  • Мировая премьера: 16 апреля 2009
  • Российская премьера: 16 апреля 2009, «Централ Партнершип»

/
Качество видео: BDRip-AVC
Продолжительность: 01:35:50
Формат: mkv
Видео: x264, 1024x576, 2650 kbps
Аудио #1: русский, дублированный, [без цензуры] AAC LC 5.1, 252 kbps
Аудио #2: русский, двухголосый закадровый [профессиональный, ТНТ (со вставками перевода Гоблина)], AC3 2.0, 192 kbps
Аудио #3: русский, одноголосый закадровый [Авторский Дмитрий Пучков «Гоблин» (присутствует ненормативная лексика)], AAC LC 5.1, 254 kbps
Аудио #4: русский, одноголосый закадровый [Авторский одноголосый Немахов], AC3 5.1, 448 kbps
Аудио #5: английский, оригинал, AAC LC 5.1, 248 kbps
Субтитры #1: вшитые отключаемые, S_TEXT/UTF8, русский
Субтитры #2: вшитые отключаемые, S_TEXT/UTF8, английский

Код:

General
Complete name                    : G:\Films\Crank_2_High_Voltage.BDRip-AVC.mkv
Format                           : Matroska
File size                        : 2.71 GiB
Duration                         : 1h 35mn
Overall bit rate                 : 4 048 Kbps
Encoded date                     : UTC 2010-02-22 21:41:31
Writing application              : mkvmerge v5.9.0 ('On The Loose') built on Dec  9 2012 15:37:01
Writing library                  : libebml v1.3.0 + libmatroska v1.4.0

Video
ID                               : 1
Format                           : AVC
Format/Info                      : Advanced Video Codec
Format profile                   : High@L3.1
Format settings, CABAC           : Yes
Format settings, ReFrames        : 16 frames
Muxing mode                      : Container profile=Unknown@3.1
Codec ID                         : V_MPEG4/ISO/AVC
Duration                         : 1h 35mn
Nominal bit rate                 : 2 650 Kbps
Width                            : 1 024 pixels
Height                           : 576 pixels
Display aspect ratio             : 16/9
Frame rate                       : 23.976 fps
Resolution                       : 24 bits
Colorimetry                      : 4:2:0
Scan type                        : Progressive
Bits/(Pixel*Frame)               : 0.187
Title                            : Crank_2_High_Voltage_BDRip_RG_Matreshka
Writing library                  : x264 core 75 r1251kMod e553a4c
Encoding settings                : cabac=1 / ref=16 / deblock=1:-1:-1 / analyse=0x3:0x133 / me=tesa / subme=10 / psy=1 / psy_rd=1.0:0.0 / mixed_ref=1 / me_range=32 / chroma_me=1 / trellis=2 / 8x8dct=1 / cqm=0 / deadzone=21,11 / chroma_qp_offset=-2 / threads=6 / nr=0 / decimate=1 / mbaff=0 / bframes=9 / b_pyramid=0 / b_adapt=2 / b_bias=0 / direct=3 / wpredb=1 / keyint=250 / keyint_min=25 / scenecut=40 / rc_lookahead=40 / rc=2pass / mbtree=1 / bitrate=2650 / ratetol=1.0 / qcomp=0.60 / qpmin=10 / qpmax=51 / qpstep=4 / cplxblur=20.0 / qblur=0.5 / ip_ratio=1.40 / aq=1:1.00
Language                         : Russian

Audio #1
ID                               : 2
Format                           : AAC
Format/Info                      : Advanced Audio Codec
Format version                   : Version 4
Format profile                   : LC
Format settings, SBR             : No
Codec ID                         : A_AAC
Duration                         : 1h 35mn
Channel(s)                       : 6 channels
Channel positions                : Front: L C R, Rear: L R, LFE
Sampling rate                    : 48.0 KHz
Resolution                       : 16 bits
Title                            : Дубляж (без цензуры)
Language                         : Russian

Audio #2
ID                               : 3
Format                           : AC-3
Format/Info                      : Audio Coding 3
Codec ID                         : A_AC3
Duration                         : 1h 35mn
Bit rate mode                    : Constant
Bit rate                         : 192 Kbps
Channel(s)                       : 2 channels
Channel positions                : L R
Sampling rate                    : 48.0 KHz
Stream size                      : 132 MiB (5%)
Title                            : ТНТ (со вставками перевода Гоблина)
Language                         : Russian

Audio #3
ID                               : 4
Format                           : AAC
Format/Info                      : Advanced Audio Codec
Format version                   : Version 4
Format profile                   : LC
Format settings, SBR             : No
Codec ID                         : A_AAC
Duration                         : 1h 35mn
Channel(s)                       : 6 channels
Channel positions                : Front: L C R, Rear: L R, LFE
Sampling rate                    : 48.0 KHz
Resolution                       : 16 bits
Title                            : Авторский (Дмитрий Пучков) Гоблин
Language                         : Russian

Audio #4
ID                               : 5
Format                           : AC-3
Format/Info                      : Audio Coding 3
Codec ID                         : A_AC3
Duration                         : 1h 35mn
Bit rate mode                    : Constant
Bit rate                         : 448 Kbps
Channel(s)                       : 6 channels
Channel positions                : Front: L C R, Surround: L R, LFE
Sampling rate                    : 48.0 KHz
Stream size                      : 307 MiB (11%)
Title                            : Авторский (Немахов)
Language                         : Russian

Audio #5
ID                               : 6
Format                           : AAC
Format/Info                      : Advanced Audio Codec
Format version                   : Version 4
Format profile                   : LC
Format settings, SBR             : No
Codec ID                         : A_AAC
Duration                         : 1h 35mn
Channel(s)                       : 6 channels
Channel positions                : Front: L C R, Rear: L R, LFE
Sampling rate                    : 48.0 KHz
Resolution                       : 16 bits
Title                            : Original (Английский)

Text #1
ID                               : 7
Format                           : UTF-8
Codec ID                         : S_TEXT/UTF8
Codec ID/Info                    : UTF-8 Plain Text
Title                            : Rus_Crank_2_High_Voltage_BDRip_RG_Matreshka
Language                         : Russian

Text #2
ID                               : 8
Format                           : UTF-8
Codec ID                         : S_TEXT/UTF8
Codec ID/Info                    : UTF-8 Plain Text
Title                            : Eng_1_Crank_2_High_Voltage_BDRip_RG_Matreshka

picpicpicpic
Для увеличения картинки щелкните мышкой по превью

Этот торрент недоступен для скачивания без регистрации, однако доступен по публичной magnet-ссылке (источники с публичных трекеров). Перед использованием ссылки прочтите, пожалуйста Пользовательское соглашение, а также как можно дольше оставайтесь на раздаче! Для того, чтобы скачать сам торрент-файл (который видит больше источников), а также для того, чтобы поблагодарить релизера, вам необходимо зарегистрироваться. Если регистрироваться лень - вы можете также попробовать скачать релиз по нашим партнерским ссылкам ниже.

[underverse.su].t23112.torrent
Трекер: Зарегистрирован   [ 08.01.2013 09:30 ]  

Статус: проверено (by Garnett at 08.01.2013 12:01)
Поблагодарили: 1 человек
Тип торрента: публичный - доступные источники с открытых трекеров: 
Размер: 2,71 GB (занимает 0,62 DVDR, для записи нужно 1 болванка DVDR/RW)
 
 
Похожие темы
Форум Тема Автор Торрент Отв. Посл. сооб.
Зарубежное кино [DVDRip, Low-Res HDRip, и т.д.] Адреналин: Высокое напряжение / Crank: High Voltage (Марк Невелдайн, Брайан Тейлор) [2009 г., фэнтези, боевик, драма, комедия, криминал, HDRip-AVC] Dub + VO garry
0 | 1

0 | 663

13

05.12.2012 22:49

garry Пол:Муж

08-Янв-2013 13:39

dmax90
чуток опоздали - конкурс уже закончился :D

Яндекс.Метрика powered by Sphinx


В Н И М А Н И Е
Сайт не распространяет и не хранит электронные версии произведений, а лишь бесплатно и без коммерческой выгоды (не требуя взамен платы,
SMS и т.д.) предоставляет доступ к создаваемому пользователями каталогу ссылок на торрент-файлы, которые содержат только списки хеш-сумм.
Убедительная просьба с жалобами обращаться напрямую к пользователю, разместившему торрент файл.

Вверх