Loading...
Error

Путь / La senda (Мигель Анхель Толедо) [2012, триллер, DVDRip] VO

Статистика раздачи
Размер:  1,36 GB   |    Зарегистрирован:  3 года 11 месяцев   |    Скачан:  2 раза

Полного источника не было: 3 года 4 месяца

Сидов:  0  |  0 KB/s  ]   Личеров:  0  |  0 KB/s  ]

* - сиды/пиры с внешних источников

   
 
Автор Сообщение

Garnett Пол:Муж

07-Янв-2013 18:21

Путь / La senda

Страна: Испания
Жанр: триллер
Год выпуска: 2012
Продолжительность: 01:23:07
Перевод: Одноголосый закадровый [Хихикающий доктор]
Субтитры: нет
Режиссер: Мигель Анхель Толедо / Miguel Бngel Toledo
В ролях: Эриель Кастро , Рэкуэл Эскрибано , Juan Prades , Густаво Салмерон , Ricardo Trenor , Ирен Виседо
Описание: В отчаянной попытке спасти свой брак Рауль приглашает жену Ану и 7-летнего сына Нико провести рождество в домике в горах. Когда Ана и Нико подружились с местным жителем Самуэлем, Рауль начинает безумно ревновать. Рауль пытается избавиться от незваного гостя, но тщетно. И вот он приглашает его на рождественский ужин с целью уличить его в романе с женой, но вечер заканчивается благополучно и Самуэль уходит. В эту ночь Раулю снятся кошмары. Всё закончилось не совсем так, всё было иначе...

Качество: DVDRip
Контейнер: AVI
Видео: XviD, 720x304 (2.35:1), 2138 kbps, 25 fps, 0,391 bpp
Аудио: AC3 / 2.0 / 48 kHz / 192 kbps / 16 bit
General
Complete name : F:\Putj.2012.L1_DVDRip.avi
Format : AVI
Format/Info : Audio Video Interleave
File size : 1.36 GiB
Duration : 1h 23mn
Overall bit rate : 2 340 Kbps
Writing application : VirtualDubMod 1.5.10.2 (build 2540/release)
Writing library : VirtualDubMod build 2540/release
Video
ID : 0
Format : MPEG-4 Visual
Format profile : Advanced Simple@L5
Format settings, BVOP : 2
Format settings, QPel : No
Format settings, GMC : No warppoints
Format settings, Matrix : Default (MPEG)
Codec ID : XVID
Codec ID/Hint : XviD
Duration : 1h 23mn
Bit rate : 2 138 Kbps
Width : 720 pixels
Height : 304 pixels
Display aspect ratio : 2.35:1
Frame rate : 25.000 fps
Color space : YUV
Chroma subsampling : 4:2:0
Bit depth : 8 bits
Scan type : Progressive
Compression mode : Lossy
Bits/(Pixel*Frame) : 0.391
Stream size : 1.24 GiB (91%)
Writing library : XviD 1.2.1 (UTC 2008-12-04)
Audio
ID : 1
Format : AC-3
Format/Info : Audio Coding 3
Mode extension : CM (complete main)
Codec ID : 2000
Duration : 1h 23mn
Bit rate mode : Constant
Bit rate : 192 Kbps
Channel(s) : 2 channels
Channel positions : Front: L R
Sampling rate : 48.0 KHz
Bit depth : 16 bits
Compression mode : Lossy
Stream size : 114 MiB (8%)
Alignment : Split accross interleaves
Interleave, duration : 40 ms (1.00 video frame)
Interleave, preload duration : 500 ms
picpicpic

Этот торрент недоступен для скачивания без регистрации, однако доступен по публичной magnet-ссылке (источники с публичных трекеров). Перед использованием ссылки прочтите, пожалуйста Пользовательское соглашение, а также как можно дольше оставайтесь на раздаче! Для того, чтобы скачать сам торрент-файл (который видит больше источников), а также для того, чтобы поблагодарить релизера, вам необходимо зарегистрироваться. Если регистрироваться лень - вы можете также попробовать скачать релиз по нашим партнерским ссылкам ниже.

[underverse.su].t23102.torrent
Трекер: Зарегистрирован   [ 07.01.2013 18:21 ]  

Статус: проверено (by Чертёнок at 07.01.2013 18:56)
Поблагодарили: пока никто не поблагодарил...
Тип торрента: публичный - доступные источники с открытых трекеров: 
Размер: 1,36 GB (занимает 0,31 DVDR, для записи нужно 1 болванка DVDR/RW)
 
 
Похожие темы
Форум Тема Автор Торрент Отв. Посл. сооб.
Зарубежное кино [DVDRip, Low-Res HDRip, и т.д.] Путь / La senda (Мигель Анхель Толедо) [2012 г., триллер, DVDRip] VO [Xixidok] + Original (Spa) RG NewCinema
1 | 0

0 | 956

5

07.01.2013 09:11


Яндекс.Метрика powered by Sphinx


В Н И М А Н И Е
Сайт не распространяет и не хранит электронные версии произведений, а лишь бесплатно и без коммерческой выгоды (не требуя взамен платы,
SMS и т.д.) предоставляет доступ к создаваемому пользователями каталогу ссылок на торрент-файлы, которые содержат только списки хеш-сумм.
Убедительная просьба с жалобами обращаться напрямую к пользователю, разместившему торрент файл.

Вверх