Loading...
Error

Что-то не так с Кевином / We Need to Talk About Kevin (Линн Рэмси) [2011, Триллер, драма, HDRip] DVO (П.Гланц и И.Королева)

Статистика раздачи
Размер:  745 MB   |    Зарегистрирован:  3 года 10 месяцев   |    Скачан:  3 раза

Полного источника не было: 1 год 10 месяцев

Сидов:  0  |  0 KB/s  ]   Личеров:  0  |  0 KB/s  ]

* - сиды/пиры с внешних источников

   
 
Автор Сообщение

Garnett Пол:Муж

07-Янв-2013 18:18

Что-то не так с Кевином / We Need to Talk About Kevin
Страна: США, Великобритания
Жанр: Триллер, драма
Год выпуска: 2011
Продолжительность: 01:51:58
Перевод: Профессиональный (двухголосый закадровый) П.Гланц и И.Королева
Cубтитры: нет
Режиссер: Линн Рэмси / Lynne Ramsay
В ролях: Тильда Суинтон, Джон Си Райли, Эзра Миллер, Джаспер Ньюэлл, Рок Дер, Эшли Герасимович, Шаван Фэллон, Алекс Манетт, Кеннет Франклин, Лесли Лайлс
Описание: Отложив в сторону все личные и профессиональные амбиции, Ева посвящает жизнь рождению и воспитанию сына. Однако их отношения с самого начала оказываются крайне сложными. В пятнадцать лет Кевин совершает непоправимое, и Ева мучается сознанием ответственности и собственной вины. Достаточно ли она любила своего сына? Какова доля ее вины в происшедшем?..
Сэмпл: http://multi-up.com/813178
Качество видео: HDRip
Формат видео: AVI
Видео: 688x288 (2.39:1), 24.000 fps, XviD build 50 ~792 kbps avg, 0.17 bit/pixel
Аудио: 48 kHz, MPEG Layer 3, 2 ch, ~128.00 kbps avg
Общее
Полное имя : S:\Фильмы\Chtoto_ne_tak_s_Kevinom_HDRip.avi
Формат : AVI
Формат/Информация : Audio Video Interleave
Размер файла : 745 Мбайт
Продолжительность : 1 ч. 51 м.
Общий поток : 930 Кбит/сек
Программа кодирования : VirtualDubMod 1.5.10.2 (build 2540/release)
Библиотека кодирования : VirtualDubMod build 2540/release
Видео
Идентификатор : 0
Формат : MPEG-4 Visual
Профиль формата : Advanced Simple@L5
Параметр BVOP формата : 1
Параметр QPel формата : Нет
Параметр GMC формата : Без точки перехода
Параметр матрицы формата : Выборочная
Идентификатор кодека : XVID
Идентификатор кодека/Подсказка : XviD
Продолжительность : 1 ч. 51 м.
Битрейт : 793 Кбит/сек
Ширина : 688 пикс.
Высота : 288 пикс.
Соотношение сторон : 2,40:1
Частота кадров : 24,000 кадр/сек
Цветовое пространство : YUV
Подвыборка цветности : 4:2:0
Битовая глубина : 8 бит
Тип развёртки : Прогрессивная
Метод сжатия : С потерями
Бит/(Пиксели*Кадры) : 0.167
Размер потока : 635 Мбайт (85%)
Библиотека кодирования : XviD 1.2.1 (UTC 2008-12-04)
Аудио
Идентификатор : 1
Формат : MPEG Audio
Версия формата : Version 1
Профиль формата : Layer 3
Идентификатор кодека : 55
Идентификатор кодека/Подсказка : MP3
Продолжительность : 1 ч. 51 м.
Вид битрейта : Постоянный
Битрейт : 128 Кбит/сек
Каналы : 2 канала
Частота : 48,0 КГц
Метод сжатия : С потерями
Размер потока : 103 Мбайт (14%)
Выравнивание : Соединение по промежуткам
Продолжительность промежутка : 42 мс. (1,00 видеокадр)
Время предзагрузки промежутка : 504 ms
Библиотека кодирования : LAME3.97
Настройки программы : -m s -V 4 -q 2 -lowpass 17 -b 128
picpicpic

Этот торрент недоступен для скачивания без регистрации, однако доступен по публичной magnet-ссылке (источники с публичных трекеров). Перед использованием ссылки прочтите, пожалуйста Пользовательское соглашение, а также как можно дольше оставайтесь на раздаче! Для того, чтобы скачать сам торрент-файл (который видит больше источников), а также для того, чтобы поблагодарить релизера, вам необходимо зарегистрироваться. Если регистрироваться лень - вы можете также попробовать скачать релиз по нашим партнерским ссылкам ниже.

[underverse.su].t23101.torrent
Трекер: Зарегистрирован   [ 07.01.2013 18:18 ]  

Статус: проверено (by Чертёнок at 07.01.2013 18:52)
Поблагодарили: пока никто не поблагодарил...
Тип торрента: публичный - доступные источники с открытых трекеров: 
Размер: 745 MB (занимает 0,17 DVDR, для записи нужно 1 болванка DVDR/RW)
 
 
Похожие темы
Форум Тема Автор Торрент Отв. Посл. сооб.
Зарубежное кино [DVDRip, Low-Res HDRip, и т.д.] Что-то не так с Кевином / We Need to Talk About Kevin (Линн Рэмси) [2011 г., Триллер, драма, DVDRip] theatre
0 | 0

0 | 506

4

06.02.2012 14:08

Зарубежное кино [DVDRip, Low-Res HDRip, и т.д.] Что-то не так с Кевином / We Need to Talk About Kevin (Линн Рэмси) [2011 г., триллер, драма, BDRip] MVO Jimmy
17 | 0

0 | 747

20

10.12.2012 15:24

Зарубежное кино [DVDRip, Low-Res HDRip, и т.д.] Что-то не так с Кевином / We Need to Talk About Kevin (Линн Рэмси / Lynne Ramsay) [2011 г., триллер, драма, HDRip-AVC] DVO Garnett
0 | 0

0 | 330

0

08.01.2013 11:52


Яндекс.Метрика powered by Sphinx


В Н И М А Н И Е
Сайт не распространяет и не хранит электронные версии произведений, а лишь бесплатно и без коммерческой выгоды (не требуя взамен платы,
SMS и т.д.) предоставляет доступ к создаваемому пользователями каталогу ссылок на торрент-файлы, которые содержат только списки хеш-сумм.
Убедительная просьба с жалобами обращаться напрямую к пользователю, разместившему торрент файл.

Вверх