Loading...
Error

Особо опасен / Wanted (Тимур Бекмамбетов) [2008 г., боевик, триллер, криминал, BDRip-AVC] Dub + AVO + VOx2 + Original

Статистика раздачи
Размер:  3,92 GB   |    Зарегистрирован:  3 года 10 месяцев   |    Скачан:  8 раз

Полного источника не было: 2 года 3 месяца

Сидов:  0  |  0 KB/s  ]   Личеров:  0  |  0 KB/s  ]

* - сиды/пиры с внешних источников

   
 
Автор Сообщение

dmax90 Пол:Муж

07-Янв-2013 16:58

Особо опасен / Wanted


Год выпуска: 2008
Жанр: боевик, триллер, криминал
Страна: США , Германия
Режиссер: Тимур Бекмамбетов
В ролях: Джеймс МакЭвой, Анджелина Джоли, Морган Фриман, Теренс Стэмп, Томас Кречманн, Коммон, Марк Уоррен, Дато Бахтадзе, Крис Прэтт, Константин Хабенский
Сюжет фильма:
Уэсли Гибсон — зануда и нытик, целыми днями торчащий в офисе. Босс его унижает, подружка ему изменяет. Его жизнь катится в никуда! Обнаружив, что отец, бросивший его в раннем детстве, зверски убит, Уэс оказывается втянут в тайное общество киллеров под названием «Братство». За его обучение берется опытная наставница Фокс, и этот когда-то прикованный к офисному креслу хлюпик развивает молниеносную реакцию и сверхчеловеческую скорость. Однако уже на первом задании Уэсли понимает: есть вещи посложнее, чем вершить судьбы других людей. Это — набраться храбрости и стать хозяином собственной жизни.
  • Мировая премьера: 12 июня 2008
  • Российская премьера: 26 июня 2008, «UPI»


Качество видео: BDRip-AVC

Продолжительность: 01:50:00
Формат: mkv
Видео: x264, 1024x432, 2031 kbps
Аудио #1: русский, дублированный, AC3 5.1, 448 kbps
Аудио #2: русский, одноголосый закадровый [авторский, Гаврилов], DTS 5.1, 1509 kbps
Аудио #3: русский, одноголосый закадровый [любительский, den904 (по переводу danis92)], AC3 5.1, 448 kbps
Аудио #4: русский, одноголосый закадровый [смешной перевод студии "Проект возмездия"], MP3 2.0, 320 kbps
Аудио #5: английский, оригинал, AC3 5.1, 224 kbps
Субтитры #1: вшитые отключаемые, S_TEXT/UTF8, русский [Лицензия]
Субтитры #2: вшитые отключаемые, S_TEXT/UTF8, русский [Форсированные]
Субтитры #3: вшитые отключаемые, S_TEXT/UTF8, русский [Данис "danis92" Нурмухаметов]
Субтитры #4: вшитые отключаемые, S_TEXT/ASS, русский [Проект Возмездия]

Код:

General
Complete name                    : C:\Films\Wanted_(2008)_BDRip-AVC_by_Gomer_S.mkv
Format                           : Matroska
File size                        : 3.92 GiB
Duration                         : 1h 50mn
Overall bit rate                 : 5 083 Kbps
Encoded date                     : UTC 2010-02-22 21:41:31
Writing application              : mkvmerge v5.9.0 ('On The Loose') built on Dec  9 2012 15:37:01
Writing library                  : libebml v1.3.0 + libmatroska v1.4.0

Video
ID                               : 1
Format                           : AVC
Format/Info                      : Advanced Video Codec
Format profile                   : High@L5.1
Format settings, CABAC           : Yes
Format settings, ReFrames        : 8 frames
Muxing mode                      : Container profile=Unknown@5.1
Codec ID                         : V_MPEG4/ISO/AVC
Duration                         : 1h 50mn
Bit rate                         : 2 032 Kbps
Nominal bit rate                 : 2 151 Kbps
Width                            : 1 024 pixels
Height                           : 432 pixels
Display aspect ratio             : 2.35
Frame rate                       : 23.976 fps
Resolution                       : 24 bits
Colorimetry                      : 4:2:0
Scan type                        : Progressive
Bits/(Pixel*Frame)               : 0.192
Stream size                      : 1.57 GiB (40%)
Writing library                  : x264 core 67 r1127M 8d82fec
Encoding settings                : cabac=1 / ref=8 / deblock=1:-1:-1 / analyse=0x3:0x113 / me=umh / subme=8 / psy_rd=1.0:0.0 / mixed_ref=1 / me_range=16 / chroma_me=1 / trellis=2 / 8x8dct=1 / cqm=0 / deadzone=21,11 / chroma_qp_offset=-2 / threads=3 / nr=0 / decimate=1 / mbaff=0 / bframes=3 / b_pyramid=1 / b_adapt=2 / b_bias=0 / direct=3 / wpredb=1 / keyint=250 / keyint_min=25 / scenecut=40 / rc=2pass / bitrate=2151 / ratetol=1.0 / qcomp=0.60 / qpmin=10 / qpmax=51 / qpstep=4 / cplxblur=20.0 / qblur=0.5 / ip_ratio=1.40 / pb_ratio=1.30 / aq=1:1.00

Audio #1
ID                               : 2
Format                           : AC-3
Format/Info                      : Audio Coding 3
Codec ID                         : A_AC3
Duration                         : 1h 50mn
Bit rate mode                    : Constant
Bit rate                         : 448 Kbps
Channel(s)                       : 6 channels
Channel positions                : Front: L C R, Surround: L R, LFE
Sampling rate                    : 48.0 KHz
Stream size                      : 354 MiB (9%)
Title                            : Дубляж
Language                         : Russian

Audio #2
ID                               : 3
Format                           : DTS
Format/Info                      : Digital Theater Systems
Codec ID                         : A_DTS
Duration                         : 1h 50mn
Bit rate mode                    : Constant
Bit rate                         : 1 510 Kbps
Channel(s)                       : 6 channels
Channel positions                : Front: L C R, Surround: L R, LFE
Sampling rate                    : 48.0 KHz
Resolution                       : 24 bits
Stream size                      : 1.16 GiB (30%)
Title                            : AVO_Гаврилов
Language                         : Russian

Audio #3
ID                               : 4
Format                           : AC-3
Format/Info                      : Audio Coding 3
Codec ID                         : A_AC3
Duration                         : 1h 50mn
Bit rate mode                    : Constant
Bit rate                         : 448 Kbps
Channel(s)                       : 6 channels
Channel positions                : Front: L C R, Surround: L R, LFE
Sampling rate                    : 48.0 KHz
Stream size                      : 354 MiB (9%)
Title                            : VO_den904
Language                         : Russian

Audio #4
ID                               : 5
Format                           : MPEG Audio
Format version                   : Version 1
Format profile                   : Layer 3
Codec ID                         : A_MPEG/L3
Codec ID/Hint                    : MP3
Duration                         : 1h 50mn
Bit rate mode                    : Constant
Bit rate                         : 320 Kbps
Channel(s)                       : 2 channels
Sampling rate                    : 48.0 KHz
Resolution                       : 16 bits
Stream size                      : 253 MiB (6%)
Title                            : VO_Проект Возмездия
Language                         : Russian

Audio #5
ID                               : 6
Format                           : AC-3
Format/Info                      : Audio Coding 3
Codec ID                         : A_AC3
Duration                         : 1h 50mn
Bit rate mode                    : Constant
Bit rate                         : 224 Kbps
Channel(s)                       : 6 channels
Channel positions                : Front: L C R, Surround: L R, LFE
Sampling rate                    : 48.0 KHz
Stream size                      : 177 MiB (4%)
Title                            : Оригинал

Text #1
ID                               : 7
Format                           : UTF-8
Codec ID                         : S_TEXT/UTF8
Codec ID/Info                    : UTF-8 Plain Text
Title                            : Full_1
Language                         : Russian

Text #2
ID                               : 8
Format                           : UTF-8
Codec ID                         : S_TEXT/UTF8
Codec ID/Info                    : UTF-8 Plain Text
Title                            : Форсированные
Language                         : Russian

Text #3
ID                               : 9
Format                           : UTF-8
Codec ID                         : S_TEXT/UTF8
Codec ID/Info                    : UTF-8 Plain Text
Title                            : Данис "danis92" Нурмухаметов
Language                         : Russian

Text #4
ID                               : 10
Format                           : ASS
Codec ID                         : S_TEXT/ASS
Codec ID/Info                    : Advanced Sub Station Alpha
Title                            : Проект Возмездия
Language                         : Russian

picpicpicpic
Для увеличения картинки щелкните мышкой по превью

Этот торрент недоступен для скачивания без регистрации, однако доступен по публичной magnet-ссылке (источники с публичных трекеров). Перед использованием ссылки прочтите, пожалуйста Пользовательское соглашение, а также как можно дольше оставайтесь на раздаче! Для того, чтобы скачать сам торрент-файл (который видит больше источников), а также для того, чтобы поблагодарить релизера, вам необходимо зарегистрироваться. Если регистрироваться лень - вы можете также попробовать скачать релиз по нашим партнерским ссылкам ниже.

[underverse.su].t23093.torrent
Трекер: Зарегистрирован   [ 07.01.2013 16:58 ]  

Статус: проверено (by Чертёнок at 07.01.2013 17:14)
Поблагодарили: 2 человека
Тип торрента: публичный - доступные источники с открытых трекеров: 
Размер: 3,92 GB (занимает 0,9 DVDR, для записи нужно 1 болванка DVDR/RW)
 
 
Похожие темы
Форум Тема Автор Торрент Отв. Посл. сооб.
Зарубежное кино [DVDRip, Low-Res HDRip, и т.д.] Особо опасны / Savages [Unrated] (Оливер Стоун) [2012 г., триллер, драма, криминал, HDRip] AVO (Дасевич) 90ytr90
5 | 0

0 | 704

33

30.11.2012 20:03

Зарубежное кино [DVDRip, Low-Res HDRip, и т.д.] Особо опасны / Savages [Unrated] (Оливер Стоун) [2012 г., триллер, драма, криминал, HDRip] AVO (Сербин) 90ytr90
4 | 0

0 | 1272

83

14.12.2012 14:32

Зарубежное кино [DVDRip, Low-Res HDRip, и т.д.] Особо опасны / Savages [Unrated] (Оливер Стоун) [2012 г., триллер, драма, криминал, HDRip] Dub 90ytr90
17 | 0

0 | 460

23

23.01.2013 16:26

Зарубежное кино [DVDRip, Low-Res HDRip, и т.д.] Особо опасны / Savages [Unrated] (Оливер Стоун) [2012 г., триллер, драма, криминал, HDRip] Dub 90ytr90
1 | 0

1 | 1668

78

27.01.2013 18:47

T Зарубежное кино [DVDRip, Low-Res HDRip, и т.д.] Особо опасна / Barely Lethal (Кайл Ньюман) [2015 г., боевик, комедия, приключения, WEB-DLRip] Dub [iTunes] Паукан
76 | 3

1 | 1282

108

23.05.2015 19:54

T Зарубежное кино [DVDRip, Low-Res HDRip, и т.д.] Особо опасна / Barely Lethal (Кайл Ньюман / Kyle Newman) [2015 г., боевик, комедия, приключения, HDRip] Dub (iTunes) + Original (Eng) 90ytr90
38 | 0

0 | 612

4

24.01.2016 19:09

T Зарубежное кино [DVDRip, Low-Res HDRip, и т.д.] Особо опасна / Barely Lethal (Кайл Ньюман / Kyle Newman) [2015 г., боевик, комедия, приключения, BDRip-AVC] Dub (iTunes)+ Sub (Eng) 90ytr90
48 | 4

0 | 405

5

24.01.2016 19:18

T Зарубежное кино [DVDRip, Low-Res HDRip, и т.д.] Особо опасна / Barely Lethal (Кайл Ньюман / Kyle Newman) [2015 г., боевик, комедия, приключения, HDRip] Dub (iTunes) 90ytr90
10 | 0

0 | 609

14

24.01.2016 20:22

T Зарубежное кино [DVDRip, Low-Res HDRip, и т.д.] Особо опасна / Barely Lethal (Кайл Ньюман / Kyle Newman) [2015 г., боевик, комедия, приключения, BDRip-AVC] Dub (iTunes) + Original (Eng) + Sub (Eng) 90ytr90
2 | 0

0 | 659

8

25.01.2016 18:24

Зарубежное кино [HDDVDRip / BDRip / WEB-DL / HDTV 1080/720р] Особо опасны / Savages [Unrated] (Оливер Стоун) [2012 г., триллер, драма, криминал, BDRip 720p] AVO (Дасевич) + Original 90ytr90
2 | 0

0 | 1259

2

06.12.2012 20:12


Яндекс.Метрика powered by Sphinx


В Н И М А Н И Е
Сайт не распространяет и не хранит электронные версии произведений, а лишь бесплатно и без коммерческой выгоды (не требуя взамен платы,
SMS и т.д.) предоставляет доступ к создаваемому пользователями каталогу ссылок на торрент-файлы, которые содержат только списки хеш-сумм.
Убедительная просьба с жалобами обращаться напрямую к пользователю, разместившему торрент файл.

Вверх