Loading...
Error

Джек Фрост / Jack Frost (Трой Миллер) [1998 г., фэнтези, драма, комедия, семейный, DVDRip] AVO (Ю. Сербин)

Статистика раздачи
Размер:  747 MB   |    Зарегистрирован:  3 года 10 месяцев   |    Скачан:  3 раза

Полного источника не было: 2 года 9 месяцев

Сидов:  0  |  0 KB/s  ]   Личеров:  0  |  0 KB/s  ]

* - сиды/пиры с внешних источников

   
 
Автор Сообщение

Доктор Ватсон Пол:Муж

07-Янв-2013 09:45

Джек Фрост / Jack Frost


Год выпуска: 1998
Жанр: фэнтези, драма, комедия, семейный
Страна: США
Режиссер: Трой Миллер
В ролях: Майкл Китон, Келли Престон, Джозеф Кросс, Марк Эдди, Эндрю Лоуренс, Эли Мариентал, Уилл Ротхаар, Мика Бурем, Бенжамин Брок, Тейлор Хэндли
Сюжет фильма:
Джек Фрост, большая часть жизни которого проходит в разъездах, почти не видится со своим любимым сыном Чарли. Джек погибает в автомобильной катастрофе, но судьба дарит ему еще один шанс. Шанс вернуться. На этот раз в качестве… снеговика. Невероятные приключения начинаются…

  • Мировая премьера: 5 декабря 1998


Качество видео: DVDRip

Продолжительность: 01:29:11
Формат: AVI
Видео: XviD, 624x336 (1.86:1), ~1033 kbps
Аудио: русский, одноголосый закадровый [авторский (Юрий Сербин)], MP3 2.0, ~128.00 kbps

Код:

General
Complete name : D:\Релизы\Снеговик (1997).avi
Format : AVI
Format/Info : Audio Video Interleave
File size : 747 MiB
Duration : 1h 29mn
Overall bit rate : 1 170 Kbps
Writing application : VirtualDubMod 1.5.10.2 (build 2540/release)
Writing library : VirtualDubMod build 2540/release

Video
ID : 0
Format : MPEG-4 Visual
Format profile : Advanced Simple@L5
Format settings, BVOP : 1
Format settings, QPel : No
Format settings, GMC : No warppoints
Format settings, Matrix : Custom
Codec ID : XVID
Codec ID/Hint : XviD
Duration : 1h 29mn
Bit rate : 1 033 Kbps
Width : 624 pixels
Height : 336 pixels
Display aspect ratio : 1.857
Frame rate : 23.976 fps
Color space : YUV
Chroma subsampling : 4:2:0
Bit depth : 8 bits
Scan type : Progressive
Compression mode : Lossy
Bits/(Pixel*Frame) : 0.206
Stream size : 659 MiB (88%)
Writing library : XviD 1.2.1 (UTC 2008-12-04)

Audio
ID : 1
Format : MPEG Audio
Format version : Version 1
Format profile : Layer 3
Mode : Joint stereo
Mode extension : MS Stereo
Codec ID : 55
Codec ID/Hint : MP3
Duration : 1h 29mn
Bit rate mode : Constant
Bit rate : 128 Kbps
Channel(s) : 2 channels
Sampling rate : 48.0 KHz
Compression mode : Lossy
Stream size : 81.5 MiB (11%)
Alignment : Aligned on interleaves
Interleave, duration : 42 ms (1.00 video frame)
Interleave, preload duration : 504 ms
Writing library : LAME3.98r
Encoding settings : -m j -V 4 -q 2 -lowpass 17 -b 128
Семпл: http://multi-up.com/507038

picpicpic
Для увеличения картинки щелкните мышкой по превью

Этот торрент недоступен для скачивания без регистрации, однако доступен по публичной magnet-ссылке (источники с публичных трекеров). Перед использованием ссылки прочтите, пожалуйста Пользовательское соглашение, а также как можно дольше оставайтесь на раздаче! Для того, чтобы скачать сам торрент-файл (который видит больше источников), а также для того, чтобы поблагодарить релизера, вам необходимо зарегистрироваться. Если регистрироваться лень - вы можете также попробовать скачать релиз по нашим партнерским ссылкам ниже.

[underverse.su].t23077.torrent
Трекер: Зарегистрирован   [ 07.01.2013 09:45 ]  

Статус: проверено (by Паукан at 07.01.2013 16:08)
Поблагодарили: пока никто не поблагодарил...
Тип торрента: публичный - доступные источники с открытых трекеров: 
Размер: 747 MB (занимает 0,17 DVDR, для записи нужно 1 болванка DVDR/RW)
 
 
Похожие темы
Форум Тема Автор Торрент Отв. Посл. сооб.
Зарубежное кино [HDDVDRip / BDRip / WEB-DL / HDTV 1080/720р] Джек Фрост / Jack Frost (Трой Миллер) [1998 г., фэнтези, драма, комедия, семейный, WEB-DL 1080p] Dub + AVO + Original makkol
2 | 0

0 | 791

3

31.12.2015 14:08


Яндекс.Метрика powered by Sphinx


В Н И М А Н И Е
Сайт не распространяет и не хранит электронные версии произведений, а лишь бесплатно и без коммерческой выгоды (не требуя взамен платы,
SMS и т.д.) предоставляет доступ к создаваемому пользователями каталогу ссылок на торрент-файлы, которые содержат только списки хеш-сумм.
Убедительная просьба с жалобами обращаться напрямую к пользователю, разместившему торрент файл.

Вверх