Loading...
Error

Бэйтаун вне закона / Изгои из Бэйтауна / The Baytown Outlaws (Бэрри Баттлс) [2012 г., криминальный, боевик, комедия, HDRip] MVO (ViruseProject)

Статистика раздачи
Размер:  1,46 GB   |    Зарегистрирован:  3 года 10 месяцев   |    Скачан:  14 раз

Полного источника не было: 6 месяцев

Сидов:  0  |  0 KB/s  ]   Личеров:  0  |  0 KB/s  ]

* - сиды/пиры с внешних источников

   
 
Автор Сообщение

Доктор Ватсон Пол:Муж

07-Янв-2013 09:32

Бэйтаун вне закона / Изгои из Бэйтауна / The Baytown Outlaws


Год выпуска: 2012
Жанр: криминальный, боевик, комедия
Страна: США
Режиссер: Бэрри Баттлс / Barry Battles
В ролях: Андре Брогер, Клейн Кроуфорд, Дэниэл Кадмор, Трэвис Фиммел, Ева Лонгория, Пол Уэсли, Билли Боб Торнтон, Томас Броди Сэнгстер, Зои Белл, Натали Мартинез и др.
Сюжет фильма:
События развернутся вокруг трех братьев, которые всегда любили конфликты и хорошо подраться. Их нанимают для того, чтобы вернуть одной девушке похищенного паренька-инвалида. Парни входят во вкус и проливают реки чужой крови, в основном похитителей.

Качество видео: HDRip

Продолжительность: 01:38:38
Формат: AVI
Видео: XviD, 720x304 (2.37:1), ~1729 kbps
Аудио: русский, многоголосый закадровый [авторский (ViruseProject)], AC3 5.1, ~384 kbps

Код:

D:\ОЗВУЧКА\ГОТОВОЕ\ФИЛЬМЫ\ИЗГОИ ИЗ БЭЙТАУНА\Izgoi.Iz.Baytauna.2012.ViruseProject.avi
General
Complete name : D:\ОЗВУЧКА\ГОТОВОЕ\ФИЛЬМЫ\ИЗГОИ ИЗ БЭЙТАУНА\Izgoi.Iz.Baytauna.2012.ViruseProject.avi
Format : AVI
Format/Info : Audio Video Interleave
File size : 1.46 GiB
Duration : 1h 38mn
Overall bit rate : 2 123 Kbps
Writing application : VirtualDubMod 1.5.10.2 (build 2540/release)
Writing library : VirtualDubMod build 2540/release
Video #0
ID : 0
Format : MPEG-4 Visual
Format profile : Advanced Simple@L5
Format settings, BVOP : 1
Format settings, QPel : No
Format settings, GMC : No warppoints
Format settings, Matrix : Default (MPEG)
Codec ID : XVID
Codec ID/Hint : XviD
Duration : 1h 38mn
Bit rate : 1 730 Kbps
Width : 720 pixels
Height : 304 pixels
Display aspect ratio : 2.35:1
Frame rate : 23.976 fps
Color space : YUV
Chroma subsampling : 4:2:0
Bit depth : 8 bits
Scan type : Progressive
Compression mode : Lossy
Bits/(Pixel*Frame) : 0.330
Stream size : 1.19 GiB (81%)
Writing library : XviD 1.2.1 (UTC 2008-12-04)
Audio #1
ID : 1
Format : AC-3
Format/Info : Audio Coding 3
Mode extension : CM (complete main)
Format settings, Endianness : Big
Codec ID : 2000
Duration : 1h 38mn
Bit rate mode : Constant
Bit rate : 384 Kbps
Channel(s) : 6 channels
Channel positions : Front: L C R, Side: L R, LFE
Sampling rate : 48.0 KHz
Bit depth : 16 bits
Compression mode : Lossy
Stream size : 271 MiB (18%)
Alignment : Split accross interleaves
Interleave, duration : 42 ms (1.00 video frame)
Interleave, preload duration : 500 ms
Семпл: http://multi-up.com/812816

picpicpic
Для увеличения картинки щелкните мышкой по превью

Этот торрент недоступен для скачивания без регистрации, однако доступен по публичной magnet-ссылке (источники с публичных трекеров). Перед использованием ссылки прочтите, пожалуйста Пользовательское соглашение, а также как можно дольше оставайтесь на раздаче! Для того, чтобы скачать сам торрент-файл (который видит больше источников), а также для того, чтобы поблагодарить релизера, вам необходимо зарегистрироваться. Если регистрироваться лень - вы можете также попробовать скачать релиз по нашим партнерским ссылкам ниже.

[underverse.su].t23076.torrent
Трекер: Зарегистрирован   [ 07.01.2013 09:32 ]  

Статус: проверено (by Чертёнок at 07.01.2013 09:36)
Поблагодарили: 3 человека
Тип торрента: публичный - доступные источники с открытых трекеров: 
Размер: 1,46 GB (занимает 0,33 DVDR, для записи нужно 1 болванка DVDR/RW)
 
 
Похожие темы
Форум Тема Автор Торрент Отв. Посл. сооб.
Зарубежное кино [DVDRip, Low-Res HDRip, и т.д.] Бэйтаун вне закона / Изгои из Бэйтауна / The Baytown Outlaws (Бэрри Баттлс) [2012 г., боевик, комедия, криминал, HDRip] DVO (den904, DeadSno) 90ytr90
52 | 4

0 | 889

28

14.12.2012 13:57

Зарубежное кино [DVDRip, Low-Res HDRip, и т.д.] Бэйтаун вне закона / Изгои из Бэйтауна / The Baytown Outlaws (Бэрри Баттлс) [2012 г., боевик, комедия, криминал, HDRip] DVO (den904, DeadSno) 90ytr90
16 | 1

0 | 362

3

14.12.2012 14:01

Зарубежное кино [DVDRip, Low-Res HDRip, и т.д.] Бэйтаун вне закона / Изгои из Бэйтауна / The Baytown Outlaws (Бэрри Баттлс / Barry Battles) [2012, США, боевик, комедия, криминал, BDRip] MVO (ViruseProject) Garnett
1 | 0

0 | 623

10

08.01.2013 11:41

Зарубежное кино [DVDRip, Low-Res HDRip, и т.д.] Бэйтаун вне закона / Изгои из Бэйтауна / The Baytown Outlaws (Бэрри Баттлс) [2012 г., боевик, комедия, криминал, HDRip] MVO (НТВ+) 90ytr90
18 | 0

0 | 268

3

03.01.2014 08:21

Зарубежное кино [DVDRip, Low-Res HDRip, и т.д.] Бэйтаун вне закона / Изгои из Бэйтауна / The Baytown Outlaws (Бэрри Баттлс / Barry Battles) [2012 г., боевик, комедия, криминал, BDRip-AVC] MVO + Sub (Rus, Eng) 90ytr90
0 | 0

0 | 1321

10

17.02.2014 16:50

Зарубежное кино [DVDRip, Low-Res HDRip, и т.д.] Бэйтаун вне закона / Изгои из Бэйтауна / The Baytown Outlaws (Бэрри Баттлс / Barry Battles) [2012 г., боевик, комедия, криминал, BDRip] 2xMVO + Original (Eng) + Sub (Rus, Eng) 90ytr90
0 | 0

0 | 337

2

06.04.2014 12:32

Зарубежное кино [DVDRip, Low-Res HDRip, и т.д.] Бэйтаун вне закона / Изгои из Бэйтауна / The Baytown Outlaws (Бэрри Баттлс / Barry Battles) [2012 г., боевик, комедия, криминал, BDRip] MVO 90ytr90
27 | 1

0 | 372

5

06.04.2014 12:44

Зарубежное кино [DVD / HDDVD / BD / Remux] Бэйтаун вне закона / Изгои из Бэйтауна / The Baytown Outlaws (Бэрри Баттлс) [2012 г., Боевик, комедия, криминал, DVD-9] Чертёнок
2 | 0

0 | 1047

9

09.03.2013 21:01


Яндекс.Метрика powered by Sphinx


В Н И М А Н И Е
Сайт не распространяет и не хранит электронные версии произведений, а лишь бесплатно и без коммерческой выгоды (не требуя взамен платы,
SMS и т.д.) предоставляет доступ к создаваемому пользователями каталогу ссылок на торрент-файлы, которые содержат только списки хеш-сумм.
Убедительная просьба с жалобами обращаться напрямую к пользователю, разместившему торрент файл.

Вверх