Loading...
Error

Анатомия крупнейших животных: Большие кошки [2010 г., документальный, HDTVRip 720p] VO

Статистика раздачи
Размер:  1,35 GB   |    Зарегистрирован:  3 года 10 месяцев   |    Скачан:  17 раз

Полного источника не было: 2 месяца 12 дней

Сидов:  0  |  0 KB/s  ]   Личеров:  0  |  0 KB/s  ]

* - сиды/пиры с внешних источников

   
 
Автор Сообщение

Доктор Ватсон Пол:Муж

07-Янв-2013 09:16

Анатомия крупнейших животных: Большие кошки


Год выпуска: 2010
Жанр: документальный
Страна: Великобритания
Режиссер: Алекс Тэйт
Сюжет фильма:
Все мы знаем, кто такие тигры или львы, а вот каково их внутреннее строение и как по нему определить их эволюционные связи, найти их общих предков, чтобы понять особенности функционирования организма животных – об этом нам и расскажут ученый-ветеринар Марк Эванс, биолог Саймон Вэттс и ученый Ричард Докинз. Герои фильма отправятся в лондонский зоопарк, чтобы исследовать льва и тигра, умерших в клетке. Как знать, не являются ли эти звери на самом деле одним и тем же животным, одевшим разные шкуры?
Качество видео: HDTVRip 720p

Продолжительность: 00:44:59
Формат: MKV
Видео: x264, 1280x720, 16:9, ~4096 kbps
Аудио: русский, одноголосый закадровый [профессиональный], MP2, 192 kbps

Код:

General
Unique ID                                : 244020410377149656536141596643489608258 (0xB7949F1D290BD8089920C1C974F5F242)
Complete name                            : S:\Раздачи (HDTVRip 720p)\Анатомия крупнейших животных\Animal Autopsy. Inside Nature's Giants S02E03 - Big Cats (Rus-MP2, HDTVRip-720p, h264) [2010].mkv
Format                                   : Matroska
Format version                           : Version 2
File size                                : 1.35 GiB
Duration                                 : 44mn 59s
Overall bit rate mode                    : Variable
Overall bit rate                         : 4 288 Kbps
Movie name                               : Animal Autopsy  Inside Nature's Giants S02E03 - Big Cats (Rus-MP2, HDTV-720p, h264) [2010]
Encoded date                             : UTC 2012-12-31 09:30:42
Writing application                      : mkvmerge v4.4.0 ('Die Wiederkehr') сборка от Oct 31 2010 21:52:48
Writing library                          : libebml v1.0.0 + libmatroska v1.0.0

Video
ID                                       : 1
Format                                   : AVC
Format/Info                              : Advanced Video Codec
Format profile                           : High@L4.0
Format settings, CABAC                   : Yes
Format settings, ReFrames                : 3 frames
Codec ID                                 : V_MPEG4/ISO/AVC
Duration                                 : 44mn 59s
Bit rate mode                            : Variable
Bit rate                                 : 4 096 Kbps
Maximum bit rate                         : 25.0 Mbps
Width                                    : 1 280 pixels
Height                                   : 720 pixels
Display aspect ratio                     : 16:9
Frame rate                               : 25.000 fps
Color space                              : YUV
Chroma subsampling                       : 4:2:0
Bit depth                                : 8 bits
Scan type                                : Progressive
Bits/(Pixel*Frame)                       : 0.178
Stream size                              : 1.26 GiB (94%)
Title                                    : Inside Nature's Giants S02E03 - Big Cats
Writing library                          : x264 core 68 r1195M 5d75a9b
Encoding settings                        : cabac=1 / ref=3 / deblock=1:0:0 / analyse=0x3:0x133 / me=umh / subme=7 / psy_rd=1.0:0.0 / mixed_ref=1 / me_range=16 / chroma_me=1 / trellis=1 / 8x8dct=1 / cqm=0 / deadzone=21,11 / chroma_qp_offset=-2 / threads=6 / nr=0 / decimate=1 / mbaff=0 / bframes=3 / b_pyramid=0 / b_adapt=1 / b_bias=0 / direct=3 / wpredb=1 / keyint=250 / keyint_min=25 / scenecut=40 / rc=2pass / bitrate=4096 / ratetol=1.0 / qcomp=0.60 / qpmin=10 / qpmax=51 / qpstep=4 / cplxblur=20.0 / qblur=0.5 / vbv_maxrate=25000 / vbv_bufsize=25000 / ip_ratio=1.40 / pb_ratio=1.30 / aq=1:1.00
Language                                 : English
Default                                  : Yes
Forced                                   : No

Audio
ID                                       : 2
Format                                   : MPEG Audio
Format version                           : Version 1
Format profile                           : Layer 2
Codec ID                                 : A_MPEG/L2
Codec ID/Hint                            : MP2
Duration                                 : 44mn 59s
Bit rate mode                            : Constant
Bit rate                                 : 192 Kbps
Channel(s)                               : 2 channels
Sampling rate                            : 48.0 KHz
Compression mode                         : Lossy
Stream size                              : 61.8 MiB (4%)
Title                                    : Профессиональный (одноголосый)
Language                                 : Russian
Default                                  : Yes
Forced                                   : No
picpicpic
Для увеличения картинки щелкните мышкой по превью

Этот торрент недоступен для скачивания без регистрации, однако доступен по публичной magnet-ссылке (источники с публичных трекеров). Перед использованием ссылки прочтите, пожалуйста Пользовательское соглашение, а также как можно дольше оставайтесь на раздаче! Для того, чтобы скачать сам торрент-файл (который видит больше источников), а также для того, чтобы поблагодарить релизера, вам необходимо зарегистрироваться. Если регистрироваться лень - вы можете также попробовать скачать релиз по нашим партнерским ссылкам ниже.

[underverse.su].t23074.torrent
Трекер: Зарегистрирован   [ 07.01.2013 09:16 ]  

Статус: проверено (by Чертёнок at 07.01.2013 09:49)
Поблагодарили: 1 человек
Тип торрента: публичный - доступные источники с открытых трекеров: 
Размер: 1,35 GB (занимает 0,31 DVDR, для записи нужно 1 болванка DVDR/RW)
 
 

rd6dne Пол:Муж

07-Янв-2013 09:42

Спасибо! :)

Яндекс.Метрика powered by Sphinx


В Н И М А Н И Е
Сайт не распространяет и не хранит электронные версии произведений, а лишь бесплатно и без коммерческой выгоды (не требуя взамен платы,
SMS и т.д.) предоставляет доступ к создаваемому пользователями каталогу ссылок на торрент-файлы, которые содержат только списки хеш-сумм.
Убедительная просьба с жалобами обращаться напрямую к пользователю, разместившему торрент файл.

Вверх