Loading...
Error

Сфера колдовства / La cle des champs (Клод Нуридзани, Мари Перену) [2011, документальный, фэнтези, HDRip] VO (А. Дасевич) + ENG + Sub (rus)

Статистика раздачи
Размер:  1,45 GB   |    Зарегистрирован:  3 года 11 месяцев   |    Скачан:  3 раза

Полного источника не было: 3 года 5 месяцев

Сидов:  0  |  0 KB/s  ]   Личеров:  0  |  0 KB/s  ]

* - сиды/пиры с внешних источников

   
 
Автор Сообщение

Garnett Пол:Муж

07-Янв-2013 07:30

Сфера колдовства / La cle des champs

Страна: Франция
Жанр: документальный, фэнтези, семейный
Год выпуска: 2011
Продолжительность: 01:21:57
Перевод: Одноголосый закадровый, А.Дасевич
Cубтитры: Russian
Режиссер: Клод Нуридзани / Nuridzani Claude, Мари Перену / Marie Perrin
В ролях: Симон Делане, Линдси Енок, Жан-Клод Айриньяк, Дени Подалидес
Описание: Заброшенный пруд. Два одиноких ребенка попадают под очарование этого дикого места, которое постепенно сблизит их и даст им силу идти по жизни. Пруд в их глазах и в их воображении становится волшебным королевством, наполненным созданиями, рожденными в их мечтах и кошмарах.
Качество видео: HDRip [La.Cle.Des.Champs.2011.720p.BluRay.Rus.Eng]
Формат видео: AVI
Видео: 720x384 (1,87:1), 24 кадра/сек, 1743 Кбит/сек, 0.263 bit/pixel
Аудио 1: AC-3, 384 Кбит/сек, 6 каналов, 48,0 КГц | VO
Аудио 2: AC-3, 384 Кбит/сек, 6 каналов, 48,0 КГц | ENG
Формат субтитров:SoftSub (SRT) - отдельно
  • Озвучивание А.Дасевичем выполнено в рамках сервиса "Озвучивание". Спонсоры: LibrarianA, Loki1982, levanevski, tambov68, DeTorquemada, gelom, Кириллка, urmastto.
  • За русскую аудиодорожку большое спасибо alextar.

Код:

General
Complete name                            : D:\ФИЛЬМЫ\La.Cle.Des.Champs.2011\La.Cle.Des.Champs.2011.andre90.avi
Format                                   : AVI
Format/Info                              : Audio Video Interleave
File size                                : 1.45 GiB
Duration                                 : 1h 21mn
Overall bit rate                         : 2 525 Kbps
Director                                 : Rip by andre90
Writing application                      : VirtualDubMod 1.5.10.2 (build 2540/release)
Writing library                          : VirtualDubMod build 2540/release
Video
ID                                       : 0
Format                                   : MPEG-4 Visual
Format profile                           : Advanced Simple@L5
Format settings, BVOP                    : 1
Format settings, QPel                    : No
Format settings, GMC                     : No warppoints
Format settings, Matrix                  : Custom
Codec ID                                 : XVID
Codec ID/Hint                            : XviD
Duration                                 : 1h 21mn
Bit rate                                 : 1 743 Kbps
Width                                    : 720 pixels
Height                                   : 384 pixels
Display aspect ratio                     : 1.85:1
Frame rate                               : 24.000 fps
Color space                              : YUV
Chroma subsampling                       : 4:2:0
Bit depth                                : 8 bits
Scan type                                : Progressive
Compression mode                         : Lossy
Bits/(Pixel*Frame)                       : 0.263
Stream size                              : 1 022 MiB (69%)
Writing library                          : XviD 1.2.1 (UTC 2008-12-04)
Audio #1
ID                                       : 1
Format                                   : AC-3
Format/Info                              : Audio Coding 3
Mode extension                           : CM (complete main)
Format settings, Endianness              : Big
Codec ID                                 : 2000
Duration                                 : 1h 21mn
Bit rate mode                            : Constant
Bit rate                                 : 384 Kbps
Channel(s)                               : 6 channels
Channel positions                        : Front: L C R, Side: L R, LFE
Sampling rate                            : 48.0 KHz
Bit depth                                : 16 bits
Compression mode                         : Lossy
Stream size                              : 225 MiB (15%)
Alignment                                : Split accross interleaves
Interleave, duration                     : 42 ms (1.00 video frame)
Interleave, preload duration             : 500 ms
Title                                    : Одноголосый закадровый, А.Дасевич
Audio #2
ID                                       : 2
Format                                   : AC-3
Format/Info                              : Audio Coding 3
Mode extension                           : CM (complete main)
Format settings, Endianness              : Big
Codec ID                                 : 2000
Duration                                 : 1h 21mn
Bit rate mode                            : Constant
Bit rate                                 : 384 Kbps
Channel(s)                               : 6 channels
Channel positions                        : Front: L C R, Side: L R, LFE
Sampling rate                            : 48.0 KHz
Bit depth                                : 16 bits
Compression mode                         : Lossy
Stream size                              : 225 MiB (15%)
Alignment                                : Split accross interleaves
Interleave, duration                     : 42 ms (1.00 video frame)
Interleave, preload duration             : 500 ms
Title                                    : French
picpicpic

Этот торрент недоступен для скачивания без регистрации, однако доступен по публичной magnet-ссылке (источники с публичных трекеров). Перед использованием ссылки прочтите, пожалуйста Пользовательское соглашение, а также как можно дольше оставайтесь на раздаче! Для того, чтобы скачать сам торрент-файл (который видит больше источников), а также для того, чтобы поблагодарить релизера, вам необходимо зарегистрироваться. Если регистрироваться лень - вы можете также попробовать скачать релиз по нашим партнерским ссылкам ниже.

[underverse.su].t23068.torrent
Трекер: Зарегистрирован   [ 07.01.2013 07:30 ]  

Статус: проверено (by Чертёнок at 07.01.2013 10:07)
Поблагодарили: 1 человек
Тип торрента: публичный - доступные источники с открытых трекеров: 
Размер: 1,45 GB (занимает 1/3 DVDR, для записи нужно 1 болванка DVDR/RW)
 
 
Похожие темы
Форум Тема Автор Торрент Отв. Посл. сооб.
Научно-популярные фильмы Сфера колдовства / La cle des champs (Клод Нуридзани, Мари Перену) [2011 г., документальный, фэнтези, DVDRip] [лицензия] 90ytr90
4 | 1

0 | 787

14

27.04.2012 18:59


Яндекс.Метрика powered by Sphinx


В Н И М А Н И Е
Сайт не распространяет и не хранит электронные версии произведений, а лишь бесплатно и без коммерческой выгоды (не требуя взамен платы,
SMS и т.д.) предоставляет доступ к создаваемому пользователями каталогу ссылок на торрент-файлы, которые содержат только списки хеш-сумм.
Убедительная просьба с жалобами обращаться напрямую к пользователю, разместившему торрент файл.

Вверх