Loading...
Error

Ужас на глубине 9-ти миль / Nine Miles Down (Энтони Уоллер) [2009, Триллер, BDRip-AVC] DVO + Original + Sub (eng)

Статистика раздачи
Размер:  2,18 GB   |    Зарегистрирован:  3 года 11 месяцев   |    Скачан:  20 раз

Полного источника не было: 6 месяцев

Сидов:  0  |  0 KB/s  ]   Личеров:  0  |  0 KB/s  ]

* - сиды/пиры с внешних источников

   
 
Автор Сообщение

Garnett Пол:Муж

06-Янв-2013 10:08

Ужас на глубине 9-ти миль / Nine Miles Down

Страна: США, Великобритания, Австралия, Венгрия
Жанр: Триллер
Год выпуска: 2009
Продолжительность: 01:26:10
Перевод: Профессиональный (двухголосый закадровый)
Cубтитры: английские
Формат субтитров: softsub (SRT)
Оригинальная аудиодорожка: английский
Режиссер: Энтони Уоллер / Anthony Waller
В ролях: Эдриан Пол, Кейт Наута, Meredith Ostrom, Аманда Доуг, Энтони Уоллер, Юзеф Эмин, Аркадий Голубович, Andrew Ryback, Caroline Couret-Delegue
Описание: Главный герой фильма — эксперт по военной безопасности, прибывает в удаленный исследовательский центр для расследования происшествий, здесь случившихся. Научный лагерь, связь с которым была прервана, встречает героя пустыми коридорами. Что-то ужасающее прячется за, казалось бы, успокаивающей пустотой. Нечто кровавое и страшное незаметно подбирается…
Качество видео: BDRip-AVC [BDRemux]
Формат видео: MKV
Видео: H.264, 1120x480 (2,33:1), 24,000 fps, 2726 Кbps, 0.211 bit/pixel
Аудио#1: 48 kHz, AC3 DD, 3/2 (L,C,R,l,r) + LFE ch, ~448.00 kbps avg | RUS
Аудио#2: 48 kHz, AC3 DD, 3/2 (L,C,R,l,r) + LFE ch, ~448.00 kbps avg | ENG
General
Unique ID : 230833175426575752430086627349221862938 (0xADA8DA3B8D836D1EA4919041092BEE1A)
Complete name : Uzhas.na.Glubine.9.mil'.2009.P.BDRip.x264.potroks.mkv
Format : Matroska
Format version : Version 2
File size : 2.18 GiB
Duration : 1h 26mn
Overall bit rate : 3 622 Kbps
Movie name : -=POTROKS=-
Encoded date : UTC 2013-01-04 15:37:00
Writing application : mkvmerge v5.7.0 ('The Whirlwind') built on Jul 8 2012 20:08:51
Writing library : libebml v1.2.3 + libmatroska v1.3.0
Video
ID : 1
Format : AVC
Format/Info : Advanced Video Codec
Format profile : High@L4.1
Format settings, CABAC : Yes
Format settings, ReFrames : 13 frames
Codec ID : V_MPEG4/ISO/AVC
Duration : 1h 26mn
Bit rate : 2 726 Kbps
Width : 1 120 pixels
Height : 480 pixels
Display aspect ratio : 2.35:1
Frame rate mode : Constant
Frame rate : 24.000 fps
Color space : YUV
Chroma subsampling : 4:2:0
Bit depth : 8 bits
Scan type : Progressive
Bits/(Pixel*Frame) : 0.211
Stream size : 1.60 GiB (73%)
Title : Ужас на глубине 9-ти миль
Writing library : x264 core 128 r2216M 198a7ea
Encoding settings : cabac=1 / ref=14 / deblock=1:-2:-2 / analyse=0x3:0x133 / me=umh / subme=11 / psy=1 / psy_rd=1.02:0.05 / mixed_ref=1 / me_range=48 / chroma_me=1 / trellis=2 / 8x8dct=1 / cqm=0 / deadzone=21,11 / fast_pskip=0 / chroma_qp_offset=-3 / threads=4 / lookahead_threads=1 / sliced_threads=0 / nr=0 / decimate=1 / interlaced=0 / bluray_compat=0 / constrained_intra=0 / bframes=15 / b_pyramid=1 / b_adapt=2 / b_bias=0 / direct=3 / weightb=1 / open_gop=0 / weightp=2 / keyint=240 / keyint_min=24 / scenecut=40 / intra_refresh=0 / rc_lookahead=150 / rc=2pass / mbtree=1 / bitrate=2726 / ratetol=1.0 / qcomp=0.70 / qpmin=0 / qpmax=69 / qpstep=4 / cplxblur=20.0 / qblur=0.5 / vbv_maxrate=20000 / vbv_bufsize=25000 / nal_hrd=none / ip_ratio=1.35 / aq=1:0.85
Language : English
Default : Yes
Forced : No
Audio #1
ID : 2
Format : AC-3
Format/Info : Audio Coding 3
Mode extension : CM (complete main)
Format settings, Endianness : Big
Codec ID : A_AC3
Duration : 1h 26mn
Bit rate mode : Constant
Bit rate : 448 Kbps
Channel(s) : 6 channels
Channel positions : Front: L C R, Side: L R, LFE
Sampling rate : 48.0 KHz
Bit depth : 16 bits
Compression mode : Lossy
Delay relative to video : 27ms
Stream size : 276 MiB (12%)
Title : DVO | DD 5.1 @ 448 kbps
Language : Russian
Default : Yes
Forced : Yes
Audio #2
ID : 3
Format : AC-3
Format/Info : Audio Coding 3
Mode extension : CM (complete main)
Format settings, Endianness : Big
Codec ID : A_AC3
Duration : 1h 26mn
Bit rate mode : Constant
Bit rate : 448 Kbps
Channel(s) : 6 channels
Channel positions : Front: L C R, Side: L R, LFE
Sampling rate : 48.0 KHz
Bit depth : 16 bits
Compression mode : Lossy
Delay relative to video : 27ms
Stream size : 276 MiB (12%)
Title : Original | DD 5.1 @ 448 kbps
Language : English
Default : No
Forced : No
Text
ID : 4
Format : UTF-8
Codec ID : S_TEXT/UTF8
Codec ID/Info : UTF-8 Plain Text
Language : English
Default : No
Forced : No
picpicpic

Этот торрент недоступен для скачивания без регистрации, однако доступен по публичной magnet-ссылке (источники с публичных трекеров). Перед использованием ссылки прочтите, пожалуйста Пользовательское соглашение, а также как можно дольше оставайтесь на раздаче! Для того, чтобы скачать сам торрент-файл (который видит больше источников), а также для того, чтобы поблагодарить релизера, вам необходимо зарегистрироваться. Если регистрироваться лень - вы можете также попробовать скачать релиз по нашим партнерским ссылкам ниже.

[underverse.su].t23058.torrent
Трекер: Зарегистрирован   [ 06.01.2013 10:08 ]  

Статус: проверено (by garry at 06.01.2013 13:48)
Поблагодарили: 1 человек
Тип торрента: публичный - доступные источники с открытых трекеров: 
Размер: 2,18 GB (занимает 1/2 DVDR, для записи нужно 1 болванка DVDR/RW)
 
 

Яндекс.Метрика powered by Sphinx


В Н И М А Н И Е
Сайт не распространяет и не хранит электронные версии произведений, а лишь бесплатно и без коммерческой выгоды (не требуя взамен платы,
SMS и т.д.) предоставляет доступ к создаваемому пользователями каталогу ссылок на торрент-файлы, которые содержат только списки хеш-сумм.
Убедительная просьба с жалобами обращаться напрямую к пользователю, разместившему торрент файл.

Вверх