Loading...
Error

Замерзшая / The Frozen (Эндрю Хайатт) [2012, триллер, DVDRip] DVO (ViruseProject)

Статистика раздачи
Размер:  693 MB   |    Зарегистрирован:  3 года 11 месяцев   |    Скачан:  15 раз

Полного источника не было: 2 года 9 месяцев

Сидов:  0  |  0 KB/s  ]   Личеров:  0  |  0 KB/s  ]

* - сиды/пиры с внешних источников

   
 
Автор Сообщение

Garnett Пол:Муж

06-Янв-2013 10:04

Замерзшая / The Frozen
Страна: США
Жанр: триллер
Год выпуска: 2012
Продолжительность: 01:34:02
Перевод: Любительский (двухголосый закадровый) ViruseProject
Cубтитры: нет
Оригинальная аудиодорожка: нет
Режиссер: Эндрю Хайатт / Andrew Hyatt
В ролях: Сет Д. Митчелл, Бритт Морган, Ной Сеган
Описание: Молодые люди - Майк и Эмма отправляются на отдых в горы, в место скрытое от туристов, что бы уже как-то наладить свои отношения. Приехав к месту назначения - самая, что ни на есть "глушь", где из людей можно встретить лишь редкого охотника, они паркуют свою машину и дальше продолжают путь на снегоходе. И вот неожиданность - снегоход ломается и что бы вы думали происходит дальше? ...
Сэмпл: http://multi-up.com/812217
Качество видео: DVDRip
Формат видео: AVI
Видео: Xvid 640x272 23.98fps 890 Kbps
Аудио: MPEG Audio Layer 3 48000Hz stereo 128kbps
Format : AVI
Format/Info : Audio Video Interleave
File size : 693 MiB
Duration : 1h 34mn
Overall bit rate : 1 031 Kbps
Writing application : Lavf54.16.104
Video
ID : 0
Format : MPEG-4 Visual
Format profile : Simple@L3
Format settings, BVOP : No
Format settings, QPel : No
Format settings, GMC : No warppoints
Format settings, Matrix : Default (H.263)
Codec ID : XVID
Codec ID/Hint : XviD
Duration : 1h 34mn
Bit rate : 890 Kbps
Width : 640 pixels
Height : 272 pixels
Display aspect ratio : 2.35:1
Frame rate : 23.976 fps
Resolution : 8 bits
Colorimetry : 4:2:0
Scan type : Progressive
Bits/(Pixel*Frame) : 0.213
Stream size : 598 MiB (86%)
Writing library : XviD 64
Audio
ID : 1
Format : MPEG Audio
Format version : Version 1
Format profile : Layer 3
Codec ID : 55
Codec ID/Hint : MP3
Duration : 1h 34mn
Bit rate mode : Constant
Bit rate : 128 Kbps
Channel(s) : 2 channels
Sampling rate : 48.0 KHz
Stream size : 86.1 MiB (12%)
Alignment : Aligned on interleaves
Interleave, duration : 24 ms (0.58 video frame)
Interleave, preload duration : 24 ms
Writing library : LAME3.99.5
picpicpic

Этот торрент недоступен для скачивания без регистрации, однако доступен по публичной magnet-ссылке (источники с публичных трекеров). Перед использованием ссылки прочтите, пожалуйста Пользовательское соглашение, а также как можно дольше оставайтесь на раздаче! Для того, чтобы скачать сам торрент-файл (который видит больше источников), а также для того, чтобы поблагодарить релизера, вам необходимо зарегистрироваться. Если регистрироваться лень - вы можете также попробовать скачать релиз по нашим партнерским ссылкам ниже.

[underverse.su].t23057.torrent
Трекер: Зарегистрирован   [ 06.01.2013 10:04 ]  

Статус: проверено (by Garnett at 08.01.2013 18:26)
Поблагодарили: пока никто не поблагодарил...
Тип торрента: публичный - доступные источники с открытых трекеров: 
Размер: 693 MB (занимает 0,15 DVDR, для записи нужно 1 болванка DVDR/RW)
 
 
Похожие темы
Форум Тема Автор Торрент Отв. Посл. сооб.
Зарубежное кино [DVDRip, Low-Res HDRip, и т.д.] Замерзшая / The Frozen (Эндрю Хайатт) [2012 г., ужасы, триллер, DVDRip] DVO (ViruseProject) 90ytr90
23 | 0

0 | 1343

40

04.01.2013 12:26

Архив Замерзшая из Майами / New in Town (Йонас Элмер) [2009г., Комедия, мелодрама, DVDRip AVC] [М@ЛЬВИН@]
0 | 0

2 | 960

10

17.02.2011 14:46

vasiliev05 Пол:Муж

13-Янв-2013 08:24

фильм полный бред! От начала до конца.

Яндекс.Метрика powered by Sphinx


В Н И М А Н И Е
Сайт не распространяет и не хранит электронные версии произведений, а лишь бесплатно и без коммерческой выгоды (не требуя взамен платы,
SMS и т.д.) предоставляет доступ к создаваемому пользователями каталогу ссылок на торрент-файлы, которые содержат только списки хеш-сумм.
Убедительная просьба с жалобами обращаться напрямую к пользователю, разместившему торрент файл.

Вверх