Loading...
Error

Извлечение / Extracted (Нир Панири) [2012, фантастика, драма, BDRip-AVC] MVO (BaiBako), Original (Eng) + Sub (Eng, Fin, Swe)

Статистика раздачи
Размер:  2,18 GB   |    Зарегистрирован:  3 года 10 месяцев   |    Скачан:  6 раз

Полного источника не было: 7 дней

Сидов:  0  |  0 KB/s  ]   Личеров:  0  |  0 KB/s  ]

* - сиды/пиры с внешних источников

   
 
Автор Сообщение

Garnett Пол:Муж

06-Янв-2013 09:56

Извлечение / Extracted
Страна: США
Студия: New Artists Alliance
Жанр: фантастика, драма
Год выпуска: 2012
Продолжительность: 01:28:53
Перевод: Профессиональный (многоголосый закадровый)
Оригинальная аудиодорожка: английская
Режиссер: Нир Панири / Nir paneer
В ролях: Саша Ройз, Дженни Моллен, Доминик Богарт, Ричард Риле, Ник Джеймисон, Родни Истман, Фрэнк Эшмор, Брэд Калвер, Тай Симпкинс, Сара Томко, Оджи Дьюк, Джен Дэвис, Бернхард Форхер, Роберт Льюис Стефенсон, Джей Бингхэм, Д.Т. Карни, Чак Кобб, Мэтт Фоулер, Каиви Лайман, Чарльз Милано, Эрик Дарнелл Реддинг, Дэвид Салливан, Скотт Восс
Описание: Главный герой Томас Джейкобс изобретает способ проникать в память людей и просматривать их воспоминания «своими глазами». Так он может возвращаться в собственные воспоминания и снова переживать счастливые моменты своей жизни. Но однажды Том вынужден действовать в разрез своим моральным принципам и использовать своё изобретение, чтобы войти в воспоминания одного наркомана и в буквальном смысле слова увидеть, совершал ли он преступление, в котором его обвиняют. Однако по причине повреждённости сознания преступника наркотиками, Том оказывается пойман в ловушке внутри его головы. Теперь ему предстоит прожить в памяти наркомана почти четыре года, до тех пор, пока он не обнаружит долгожданную возможность побега.

Релиз: fanatus
Качество видео: BDRip (AVC)
Исходник: Blu-ray disc 1080p BLUEBIRD
Контейнер: MKV
Видео: MPEG-4 AVC, 2612 kbps , 1280x532 (2.40:1), 23.976 fps, 0.160 bit/pixel
Аудио 1: русский (AC3, 6 ch, 48 kHz, 448 kbps) MVO (BaiBako)
Аудио 2: английский (AC3, 6 ch, 48 kHz, 448 kbps) Original
Cубтитры: английские, финские, польские, испанские, шведские
Формат субтитров: softsub (SRT)
Главы: есть
General
Unique ID : 241217783348408234066677078767308646850 (0xB578DAEED793D796BE6CEF43906C29C2)
Complete name : D:\Izvlechenie.2012.x264.BDRip.(AVC).fanatus.mkv
Format : Matroska
Format version : Version 2
File size : 2.18 GiB
Duration : 1h 28mn
Overall bit rate : 3 506 Kbps
Movie name : Extracted (2012) - fanatus
Encoded date : UTC 2013-01-03 22:10:53
Writing application : mkvmerge v3.4.0 ('Rapunzel') сборка от May 15 2010 09:38:20
Writing library : libebml v0.8.0 + libmatroska v0.9.0
Video
ID : 1
Format : AVC
Format/Info : Advanced Video Codec
Format profile : High@L4.1
Format settings, CABAC : Yes
Format settings, ReFrames : 9 frames
Codec ID : V_MPEG4/ISO/AVC
Duration : 1h 28mn
Bit rate : 2 612 Kbps
Width : 1 280 pixels
Height : 532 pixels
Display aspect ratio : 2.40:1
Frame rate : 23.976 fps
Color space : YUV
Chroma subsampling : 4:2:0
Bit depth : 8 bits
Scan type : Progressive
Bits/(Pixel*Frame) : 0.160
Stream size : 1.58 GiB (72%)
Title : Extracted (2012)
Writing library : x264 core 129 r2230 1cffe9f
Encoding settings : cabac=1 / ref=9 / deblock=1:-3:-3 / analyse=0x3:0x113 / me=umh / subme=11 / psy=1 / psy_rd=1.10:0.00 / mixed_ref=1 / me_range=48 / chroma_me=1 / trellis=2 / 8x8dct=1 / cqm=0 / deadzone=21,11 / fast_pskip=0 / chroma_qp_offset=-2 / threads=16 / lookahead_threads=2 / sliced_threads=0 / nr=0 / decimate=0 / interlaced=0 / bluray_compat=0 / constrained_intra=0 / bframes=12 / b_pyramid=2 / b_adapt=2 / b_bias=0 / direct=3 / weightb=1 / open_gop=0 / weightp=2 / keyint=240 / keyint_min=23 / scenecut=40 / intra_refresh=0 / rc_lookahead=40 / rc=2pass / mbtree=0 / bitrate=2612 / ratetol=1.0 / qcomp=0.70 / qpmin=0 / qpmax=69 / qpstep=4 / cplxblur=20.0 / qblur=0.5 / vbv_maxrate=50000 / vbv_bufsize=62500 / nal_hrd=none / ip_ratio=1.40 / pb_ratio=1.30 / aq=1:1.05
Language : English
Default : Yes
Forced : No
Color primaries : BT.709-5, BT.1361, IEC 61966-2-4, SMPTE RP177
Transfer characteristics : BT.709-5, BT.1361
Matrix coefficients : BT.709-5, BT.1361, IEC 61966-2-4 709, SMPTE RP177
Audio #1
ID : 2
Format : AC-3
Format/Info : Audio Coding 3
Mode extension : CM (complete main)
Format settings, Endianness : Big
Codec ID : A_AC3
Duration : 1h 28mn
Bit rate mode : Constant
Bit rate : 448 Kbps
Channel(s) : 6 channels
Channel positions : Front: L C R, Side: L R, LFE
Sampling rate : 48.0 KHz
Bit depth : 16 bits
Compression mode : Lossy
Stream size : 285 MiB (13%)
Title : MVO (BaiBako)
Language : Russian
Default : Yes
Forced : Yes
Audio #2
ID : 3
Format : AC-3
Format/Info : Audio Coding 3
Mode extension : CM (complete main)
Format settings, Endianness : Big
Codec ID : A_AC3
Duration : 1h 28mn
Bit rate mode : Constant
Bit rate : 448 Kbps
Channel(s) : 6 channels
Channel positions : Front: L C R, Side: L R, LFE
Sampling rate : 48.0 KHz
Bit depth : 16 bits
Compression mode : Lossy
Stream size : 285 MiB (13%)
Title : Original
Language : English
Default : No
Forced : No
Text #1
ID : 4
Format : UTF-8
Codec ID : S_TEXT/UTF8
Codec ID/Info : UTF-8 Plain Text
Language : English
Default : No
Forced : No
Text #2
ID : 5
Format : UTF-8
Codec ID : S_TEXT/UTF8
Codec ID/Info : UTF-8 Plain Text
Language : Finnish
Default : No
Forced : No
Text #3
ID : 6
Format : UTF-8
Codec ID : S_TEXT/UTF8
Codec ID/Info : UTF-8 Plain Text
Language : Polish
Default : No
Forced : No
Text #4
ID : 7
Format : UTF-8
Codec ID : S_TEXT/UTF8
Codec ID/Info : UTF-8 Plain Text
Language : Spanish
Default : No
Forced : No
Text #5
ID : 8
Format : UTF-8
Codec ID : S_TEXT/UTF8
Codec ID/Info : UTF-8 Plain Text
Language : Swedish
Default : No
Forced : No
Menu
00:00:00.000 : en:Chapter 01
00:08:10.948 : en:Chapter 02
00:16:35.994 : en:Chapter 03
00:25:47.003 : en:Chapter 04
00:35:21.953 : en:Chapter 05
00:45:43.991 : en:Chapter 06
00:53:41.968 : en:Chapter 07
01:02:02.927 : en:Chapter 08
01:08:15.925 : en:Chapter 09
01:14:02.896 : en:Chapter 10
01:22:08.924 : en:Chapter 11
01:25:06.893 : en:Chapter 12
01:26:39.944 : en:Chapter 13
01:28:46.904 : en:Chapter 14
---[NoImage] raw [info]: 1280x532p 1:1 @ 24000/1001 fps (cfr)
---[NoImage] x264 [info]: using SAR=1/1
---[NoImage] x264 [info]: using cpu capabilities: MMX2 SSE2Fast FastShuffle SSEMisalign LZCNT
---[NoImage] x264 [info]: profile High, level 4.1
---[NoImage]
---[NoImage] x264 [info]: frame I:1086 Avg QP:11.96 size: 81658
---[NoImage] x264 [info]: frame P:26544 Avg QP:14.53 size: 27981
---[NoImage] x264 [info]: frame B:100240 Avg QP:15.63 size: 9052
---[NoImage] x264 [info]: consecutive B-frames: 2.6% 3.1% 8.7% 11.6% 13.7% 38.2% 7.6% 2.4% 3.9% 1.8% 1.4% 2.4% 2.6%
---[NoImage] x264 [info]: mb I I16..4: 7.3% 79.0% 13.6%
---[NoImage] x264 [info]: mb P I16..4: 1.4% 11.0% 1.9% P16..4: 30.7% 37.9% 11.6% 0.0% 0.0% skip: 5.5%
---[NoImage] x264 [info]: mb B I16..4: 0.2% 1.0% 0.3% B16..8: 35.6% 23.1% 3.5% direct: 4.7% skip:31.7% L0:44.7% L1:46.2% BI: 9.1%
---[NoImage] x264 [info]: 8x8 transform intra:74.7% inter:53.3%
---[NoImage] x264 [info]: direct mvs spatial:99.5% temporal:0.5%
---[NoImage] x264 [info]: coded y,uvDC,uvAC intra: 80.0% 69.5% 49.0% inter: 20.4% 14.2% 6.6%
---[NoImage] x264 [info]: i16 v,h,dc,p: 48% 12% 9% 32%
---[NoImage] x264 [info]: i8 v,h,dc,ddl,ddr,vr,hd,vl,hu: 14% 8% 10% 9% 11% 12% 12% 12% 13%
---[NoImage] x264 [info]: i4 v,h,dc,ddl,ddr,vr,hd,vl,hu: 36% 7% 12% 6% 9% 8% 8% 7% 8%
---[NoImage] x264 [info]: i8c dc,h,v,p: 32% 35% 19% 14%
---[NoImage] x264 [info]: Weighted P-Frames: Y:2.6% UV:0.8%
---[NoImage] x264 [info]: ref P L0: 52.1% 6.5% 18.0% 6.7% 5.2% 3.9% 3.3% 2.0% 1.9% 0.3% 0.0%
---[NoImage] x264 [info]: ref B L0: 74.1% 12.0% 5.9% 3.0% 2.2% 1.7% 0.9% 0.3%
---[NoImage] x264 [info]: ref B L1: 92.4% 7.6%
---[NoImage] x264 [info]: kb/s:2608.13
---[NoImage] encoded 127870 frames, 9.75 fps, 2608.13 kb/s
picpicpic

Этот торрент недоступен для скачивания без регистрации, однако доступен по публичной magnet-ссылке (источники с публичных трекеров). Перед использованием ссылки прочтите, пожалуйста Пользовательское соглашение, а также как можно дольше оставайтесь на раздаче! Для того, чтобы скачать сам торрент-файл (который видит больше источников), а также для того, чтобы поблагодарить релизера, вам необходимо зарегистрироваться. Если регистрироваться лень - вы можете также попробовать скачать релиз по нашим партнерским ссылкам ниже.

[underverse.su].t23055.torrent
Трекер: Зарегистрирован   [ 06.01.2013 09:56 ]  

Статус: проверено (by garry at 06.01.2013 13:39)
Поблагодарили: 1 человек
Тип торрента: публичный - доступные источники с открытых трекеров: 
Размер: 2,18 GB (занимает 1/2 DVDR, для записи нужно 1 болванка DVDR/RW)
 
 
Похожие темы
Форум Тема Автор Торрент Отв. Посл. сооб.
Зарубежное кино [DVDRip, Low-Res HDRip, и т.д.] Извлечение / Extracted (Нир Панири) [2012 г., фантастика, драма, HDRip] DVO (den904, DeadSno) Jimmy
8 | 0

0 | 1233

20

16.12.2012 06:28

Зарубежное кино [DVDRip, Low-Res HDRip, и т.д.] Извлечение / Extracted (Нир Панири) [2012 г., фантастика, драма, HDRip] VO (Kerob) 90ytr90
120 | 0

0 | 1062

56

14.12.2012 13:35

Зарубежное кино [DVDRip, Low-Res HDRip, и т.д.] Извлечение / Extracted (Нир Панири) [2012 г., фантастика, драма, HDRip] VO (Kerob) 90ytr90
1 | 0

0 | 365

6

14.12.2012 13:38

Зарубежное кино [DVDRip, Low-Res HDRip, и т.д.] Извлечение / Extracted (Нир Панири) [2012, фантастика, драма, HDRip] DVO Garnett
3 | 0

0 | 419

5

17.12.2012 12:35

Зарубежное кино [DVDRip, Low-Res HDRip, и т.д.] Извлечение / Extracted (Нир Панири) [2012, фантастика, драма, HDRip] MVO [BaiBako] Garnett
43 | 0

0 | 344

7

02.01.2013 13:30

Зарубежное кино [DVDRip, Low-Res HDRip, и т.д.] Извлечение / Extracted (Нир Панири) [2012, Фантастика, драма, BDRip] MVO (BaiBako) Garnett
10 | 0

0 | 502

24

02.01.2013 13:56

Зарубежное кино [DVDRip, Low-Res HDRip, и т.д.] Извлечение / Extracted (Нир Панири) [2012, фантастика, драма, BDRip-AVC] MVO (BaiBako), Original (Eng) + Sub (Eng, Fin, Swe) Garnett
38 | 1

0 | 1136

16

06.01.2013 09:51


Яндекс.Метрика powered by Sphinx


В Н И М А Н И Е
Сайт не распространяет и не хранит электронные версии произведений, а лишь бесплатно и без коммерческой выгоды (не требуя взамен платы,
SMS и т.д.) предоставляет доступ к создаваемому пользователями каталогу ссылок на торрент-файлы, которые содержат только списки хеш-сумм.
Убедительная просьба с жалобами обращаться напрямую к пользователю, разместившему торрент файл.

Вверх