Loading...
Error

Мальчишник в Новом Орлеане / Mardi Gras: Spring Break (Фил Дорнфелд) [2011, комедия, HDRip] MVO

Статистика раздачи
Размер:  1,46 GB   |    Зарегистрирован:  3 года 10 месяцев   |    Скачан:  5 раз

Полного источника не было: 2 года 5 месяцев

Сидов:  0  |  0 KB/s  ]   Личеров:  0  |  0 KB/s  ]

* - сиды/пиры с внешних источников

   
 
Автор Сообщение

Garnett Пол:Муж

05-Янв-2013 18:49

Мальчишник в Новом Орлеане / Mardi Gras: Spring Break

Страна: США
Жанр: комедия
Год выпуска: 2011
Продолжительность: 01:27:54
Перевод: Профессиональный (многоголосый, закадровый)
Режиссер: Фил Дорнфелд / Phil Dornfeld
В ролях: Николас Д’Агосто , Джош Гад , Брэт Харрисон , Ариэль Кеббел , Дэннил Эклс , Чарльз Шонесси , Джесси О’Донохью , Бекки О’Донахью , Кармен Электра , Реджина Холл , Джек Беттс , Мими Коззенс
Описание: Марди Гра - международный аналог Масленицы. Празднования проходят во всем мире, но самые пышные, массовые и знаменитые по праву принадлежат Новому Орлеану. Именно туда и отправляется группа приятелей из колледжа.

Качество: HDRip (Исходник WEBDL 720p)
Контейнер: AVI
Видео: XviD, 720x400 (16:9), 1981 kbps
Аудио: AC3 / 5.1 / 48 kHz / 384 kbps
General
Complete name : F:\Malchishnik.v.Novom.Orleane.2011.HDRip.avi
Format : AVI
Format/Info : Audio Video Interleave
File size : 1.46 GiB
Duration : 1h 27mn
Overall bit rate : 2 375 Kbps
Writing application : VirtualDubMod 1.5.10.2 (build 2540/release)
Writing library : VirtualDubMod build 2540/release
Video
ID : 0
Format : MPEG-4 Visual
Format profile : Advanced Simple@L5
Format settings, BVOP : 2
Format settings, QPel : No
Format settings, GMC : No warppoints
Format settings, Matrix : Default (MPEG)
Muxing mode : Packed bitstream
Codec ID : XVID
Codec ID/Hint : XviD
Duration : 1h 27mn
Bit rate : 1 982 Kbps
Width : 720 pixels
Height : 400 pixels
Display aspect ratio : 16:9
Frame rate : 23.976 fps
Color space : YUV
Chroma subsampling : 4:2:0
Bit depth : 8 bits
Scan type : Progressive
Compression mode : Lossy
Bits/(Pixel*Frame) : 0.287
Stream size : 1.22 GiB (83%)
Writing library : XviD 1.2.1 (UTC 2008-12-04)
Audio
ID : 1
Format : AC-3
Format/Info : Audio Coding 3
Mode extension : CM (complete main)
Codec ID : 2000
Duration : 1h 27mn
Bit rate mode : Constant
Bit rate : 384 Kbps
Channel(s) : 6 channels
Channel positions : Front: L C R, Side: L R, LFE
Sampling rate : 48.0 KHz
Bit depth : 16 bits
Compression mode : Lossy
Stream size : 241 MiB (16%)
Alignment : Split accross interleaves
Interleave, duration : 42 ms (1.00 video frame)
Interleave, preload duration : 500 ms
picpicpic

Этот торрент недоступен для скачивания без регистрации, однако доступен по публичной magnet-ссылке (источники с публичных трекеров). Перед использованием ссылки прочтите, пожалуйста Пользовательское соглашение, а также как можно дольше оставайтесь на раздаче! Для того, чтобы скачать сам торрент-файл (который видит больше источников), а также для того, чтобы поблагодарить релизера, вам необходимо зарегистрироваться. Если регистрироваться лень - вы можете также попробовать скачать релиз по нашим партнерским ссылкам ниже.

[underverse.su].t23045.torrent
Трекер: Зарегистрирован   [ 05.01.2013 18:54 ]  

Статус: проверено (by Чертёнок at 05.01.2013 19:14)
Поблагодарили: 1 человек
Тип торрента: публичный - доступные источники с открытых трекеров: 
Размер: 1,46 GB (занимает 1/3 DVDR, для записи нужно 1 болванка DVDR/RW)
 
 
Похожие темы
Форум Тема Автор Торрент Отв. Посл. сооб.
Зарубежное кино [DVDRip, Low-Res HDRip, и т.д.] Мальчишник в Вегасе / The Hangover / 2009 / DVDRip ( Тодд Филлипс) [2009 г., комедия, DVDRip] niif111
0 | 0

4 | 1294

40

28.01.2010 19:23

Зарубежное кино [DVDRip, Low-Res HDRip, и т.д.] Мальчишник в Вегасе (Расширенная версия) / The Hangover (Unrated) (Тодд Филлипс / Todd Phillips) [2009 г., комедия, BDRip] GUree
0 | 0

1 | 1802

6

03.04.2010 08:41

Зарубежное кино [DVDRip, Low-Res HDRip, и т.д.] Мальчишник в Новом Орлеане / Mardi Gras: Spring Break (Фил Дорнфелд) [2011 г., комедия, DVDRip] RG NewCinema
0 | 0

1 | 542

7

26.10.2011 15:25

Зарубежное кино [DVDRip, Low-Res HDRip, и т.д.] Мальчишник 2: Из Вегаса в Бангкок / The Hangover Part II (Тодд Филлипс) [2011 г., комедия, DVDRip] RG NewCinema
0 | 0

0 | 782

44

30.10.2011 10:36

Зарубежное кино [DVDRip, Low-Res HDRip, и т.д.] Мальчишник в Новом Орлеане / Mardi Gras: Spring Break (Фил Дорнфелд) [2011, комедия, HDRip-AVC] MVO Garnett
8 | 1

0 | 518

1

05.01.2013 18:58

T Зарубежное кино [DVDRip, Low-Res HDRip, и т.д.] Мальчишник: Часть III / The Hangover Part III (Тодд Филлипс) [2013 г., комедия, DVDRip] AVO (Гоблин) (звук с CAMRip) 90ytr90
7 | 0

0 | 509

13

14.09.2013 04:12

Зарубежное кино [DVDRip, Low-Res HDRip, и т.д.] Мальчишник: Часть III / The Hangover Part III (Тодд Филлипс) [2013 г., комедия, BDRip-AVC] Dub (iTunes Russia) + Original + Ukr + Subs 90ytr90
0 | 0

0 | 1271

43

21.09.2013 10:09

Зарубежное кино [DVDRip, Low-Res HDRip, и т.д.] Мальчишник: Часть III / The Hangover Part III (Тодд Филлипс) [2013 г., комедия, HDRip] Dub (iTunes Russia) 90ytr90
18 | 1

0 | 686

75

21.09.2013 12:56

Зарубежное кино [DVDRip, Low-Res HDRip, и т.д.] Мальчишник: Часть III / The Hangover Part III (Тодд Филлипс / Todd Phillips) [2013 г., комедия, BDRip] Dub Чертёнок
57 | 0

0 | 1457

35

24.09.2013 10:36

Зарубежное кино [DVDRip, Low-Res HDRip, и т.д.] Мальчишник: Часть III / The Hangover Part III (Тодд Филлипс) [2013 г., комедия, HDRip] AVO (Гоблин) 90ytr90
6 | 0

0 | 1279

45

28.09.2013 05:47

vasiliev05 Пол:Муж

13-Янв-2013 08:26

фильм из серии Американского пирога и муравьи в штанах, короче для подростков. Фильм на один раз.

Яндекс.Метрика powered by Sphinx


В Н И М А Н И Е
Сайт не распространяет и не хранит электронные версии произведений, а лишь бесплатно и без коммерческой выгоды (не требуя взамен платы,
SMS и т.д.) предоставляет доступ к создаваемому пользователями каталогу ссылок на торрент-файлы, которые содержат только списки хеш-сумм.
Убедительная просьба с жалобами обращаться напрямую к пользователю, разместившему торрент файл.

Вверх