Loading...
Error

Молчаливый мотель / No Tell Motel (Бретт Доноху) [2012, ужасы, HDRip] VO [den904] + Original Eng

Статистика раздачи
Размер:  1,45 GB   |    Зарегистрирован:  3 года 11 месяцев   |    Скачан:  4 раза

Полного источника не было: 3 года 10 месяцев

Сидов:  0  |  0 KB/s  ]   Личеров:  0  |  0 KB/s  ]

* - сиды/пиры с внешних источников

   
 
Автор Сообщение

Garnett Пол:Муж

05-Янв-2013 18:20

Молчаливый мотель / No Tell Motel
Страна: США
Жанр: ужасы
Год выпуска: 2012
Продолжительность: 01:23:36
Перевод: Одноголосый закадровый [den904]
Cубтитры: нет
Оригинальная аудиодорожка: английский
Режиссер: Бретт Доноху / Brett Donowho
В ролях: Энджел МакКорд, Джон Хоукс, Эндрю МакФарлейн, Стефани Ван Дик, Джеймс Тюс, Хит Уайтлок, ...
Описание: Для пятерых друзей ночная поездка заканчивается аварией и перевёрнутым авто. Неподалёку обнаруживается заброшенный придорожный мотель, решение переночевать в котором оборачивается для всей компании куда более трагичными последствиями.
Сэмпл:http://multi-up.com/811460
Качество видео: HDRip
Формат видео: AVI
Видео: XviD, 1900 kb/s, 720x384
Аудио: Russian: AC3, 448 kb/s (6 ch)
Аудио 2: English: MP3, 128 kb/s (2 ch)
Общее
Полное имя : D:\Торенты\Molchalivyj.motel.2012.L1.WEBDLRip.avi
Формат : AVI
Формат/Информация : Audio Video Interleave
Размер файла : 1,45 Гбайт
Продолжительность : 1 ч. 23 м.
Общий поток : 2491 Кбит/сек
Программа кодирования : VirtualDubMod 1.5.10.2 (build 2540/release)
Библиотека кодирования : VirtualDubMod build 2540/release
Видео
Идентификатор : 0
Формат : MPEG-4 Visual
Профиль формата : Advanced Simple@L5
Параметр BVOP формата : 2
Параметр QPel формата : Нет
Параметр GMC формата : Без точки перехода
Параметр матрицы формата : Default (MPEG)
Идентификатор кодека : XVID
Идентификатор кодека/Подсказка : XviD
Продолжительность : 1 ч. 23 м.
Битрейт : 1901 Кбит/сек
Ширина : 720 пикселей
Высота : 384 пикселя
Соотношение сторон : 1,85:1
Частота кадров : 23,976 кадра/сек
Цветовое пространство : YUV
Субдискретизация насыщенности : 4:2:0
Битовая глубина : 8 бит
Тип развёртки : Прогрессивная
Метод сжатия : С потерями
Бит/(Пиксели*Кадры) : 0.287
Размер потока : 1,11 Гбайт (76%)
Библиотека кодирования : XviD 1.2.1 (UTC 2008-12-04)
Аудио #1
Идентификатор : 1
Формат : AC-3
Формат/Информация : Audio Coding 3
Расширение режима : CM (complete main)
Параметр Endianness формата : Big
Идентификатор кодека : 2000
Продолжительность : 1 ч. 23 м.
Вид битрейта : Постоянный
Битрейт : 448 Кбит/сек
Каналы : 6 каналов
Расположение каналов : Front: L C R, Side: L R, LFE
Частота : 48,0 КГц
Битовая глубина : 16 бит
Метод сжатия : С потерями
Размер потока : 268 Мбайт (18%)
Выравнивание : Разделение по промежуткам
Продолжительность промежутка : 42 мс. (1,00 видеокадр)
Время предзагрузки промежутка : 500 мс.
Аудио #2
Идентификатор : 2
Формат : MPEG Audio
Версия формата : Version 1
Профиль формата : Layer 3
Режим : Joint stereo
Расширение режима : MS Stereo
Идентификатор кодека : 55
Идентификатор кодека/Подсказка : MP3
Продолжительность : 1 ч. 23 м.
Вид битрейта : Постоянный
Битрейт : 128 Кбит/сек
Каналы : 2 канала
Частота : 48,0 КГц
Метод сжатия : С потерями
Размер потока : 76,5 Мбайт (5%)
Выравнивание : Соединение по промежуткам
Продолжительность промежутка : 42 мс. (1,00 видеокадр)
Время предзагрузки промежутка : 504 мс.
picpicpic

Этот торрент недоступен для скачивания без регистрации, однако доступен по публичной magnet-ссылке (источники с публичных трекеров). Перед использованием ссылки прочтите, пожалуйста Пользовательское соглашение, а также как можно дольше оставайтесь на раздаче! Для того, чтобы скачать сам торрент-файл (который видит больше источников), а также для того, чтобы поблагодарить релизера, вам необходимо зарегистрироваться. Если регистрироваться лень - вы можете также попробовать скачать релиз по нашим партнерским ссылкам ниже.

[underverse.su].t23042.torrent
Трекер: Зарегистрирован   [ 05.01.2013 18:20 ]  

Статус: проверено (by Чертёнок at 05.01.2013 18:52)
Поблагодарили: 2 человека
Тип торрента: публичный - доступные источники с открытых трекеров: 
Размер: 1,45 GB (занимает 1/3 DVDR, для записи нужно 1 болванка DVDR/RW)
 
 
Похожие темы
Форум Тема Автор Торрент Отв. Посл. сооб.
Зарубежное кино [DVDRip, Low-Res HDRip, и т.д.] Молчаливый мотель / No Tell Motel (Бретт Доноху) [2012 г., ужасы, DVDRip] VO [den904] RG NewCinema
187 | 8

0 | 471

15

04.11.2012 14:43

Зарубежное кино [DVDRip, Low-Res HDRip, и т.д.] Молчаливый мотель / No Tell Motel (Бретт Доноху) [2012 г., ужасы, WEB-DLRip] VO TERRAN
5 | 0

1 | 1205

14

03.01.2013 18:11

Аниме Молчаливый Мобиус (фильм первый) / Silent Mobius - Theatrical Movie (Томидзава Кадзуо)[RUS(int), JAP][1991, приключения, фантастика, DVDRip] Hitman
0 | 0

0 | 893

1

03.03.2011 11:57

МаскПэйн Пол:Муж

06-Янв-2013 05:19

Какой замысловатый сюжет, судя по описанию... :D

Яндекс.Метрика powered by Sphinx


В Н И М А Н И Е
Сайт не распространяет и не хранит электронные версии произведений, а лишь бесплатно и без коммерческой выгоды (не требуя взамен платы,
SMS и т.д.) предоставляет доступ к создаваемому пользователями каталогу ссылок на торрент-файлы, которые содержат только списки хеш-сумм.
Убедительная просьба с жалобами обращаться напрямую к пользователю, разместившему торрент файл.

Вверх