Loading...
Error

Человек, который изменил всё / Moneyball (Беннетт Миллер) [2011, биография, драма, спорт, HDRip-AVC] Dub + Original (ENG) + Sub (RUS, ENG)

Статистика раздачи
Размер:  2,2 GB   |    Зарегистрирован:  3 года 10 месяцев   |    Скачан:  16 раз

Полного источника не было: 14 дней

Сидов:  0  |  0 KB/s  ]   Личеров:  0  |  0 KB/s  ]

* - сиды/пиры с внешних источников

   
 
Автор Сообщение

Garnett Пол:Муж

05-Янв-2013 18:14

Человек, который изменил всё / Moneyball
Страна: США
Жанр: биография, драма, спорт
Год выпуска: 2011
Продолжительность: 02:13:14
Перевод: Профессиональный (дублированный)
Cубтитры: русские, английские
Оригинальная аудиодорожка: английский
Режиссер: Беннетт Миллер / Bennett Miller
В ролях: Брэд Питт, Филип Сеймур Хоффман, Джона Хилл, Робин Райт, К. Прэтт, С. Бишоп, К. Дорси и др.
Описание: Фильм по книге Майкла M. Льюиса, изданной в 2003 году, об Оклендской бейсбольной команде и ее генеральном менеджере, Билли Бине. Его цель — создать конкурентоспособную бейсбольную команду, несмотря на финансовые трудности.
Рейтинги:
IMDb - 7.6
КиноПоиск - 7.9
Сэмпл: http://multi-up.com/811326 (11,6 МБ)
Качество видео: HDRip-AVC
Формат видео: MKV
Видео: H.264, 1024x552, 1.85:1, 23.976 fps, 1417 Kbps (DXVA)
Аудио 1: AC3, 48 KHz, 448 Kbps, 6 ch, RUS (dub)
Аудио 2: AC3, 48 KHz, 448 Kbps, 6 ch, ENG (original)
Субтитры: softsub (RUS, ENG)
General
Unique ID : 197895209314763959243680962891080124778 (0x94E13B1F57D814758601A760C459C96A)
Complete name : D:\Видео\Moneyball\Moneyball.mkv
Format : Matroska
Format version : Version 4 / Version 2
File size : 2.20 GiB
Duration : 2h 13mn
Overall bit rate : 2 361 Kbps
Encoded date : UTC 2010-02-22 21:41:31
Writing application : mkvmerge v5.9.0 ('On The Loose') built on Dec 9 2012 15:37:01
Writing library : libebml v1.3.0 + libmatroska v1.4.0
Video #1
ID : 1
Format : AVC
Format/Info : Advanced Video Codec
Format profile : High@L3.1
Format settings, CABAC : Yes
Format settings, ReFrames : 4 frames
Codec ID : V_MPEG4/ISO/AVC
Duration : 2h 13mn
Bit rate : 1 418 Kbps
Width : 1 024 pixels
Height : 552 pixels
Display aspect ratio : 1.85:1
Original display aspect ratio : 1.85:1
Frame rate mode : Constant
Frame rate : 23.976 fps
Color space : YUV
Chroma subsampling : 4:2:0
Bit depth : 8 bits
Scan type : Progressive
Bits/(Pixel*Frame) : 0.105
Stream size : 1.32 GiB (60%)
Title : Видео
Writing library : x264 core 129 r2230 1cffe9f
Encoding settings : cabac=1 / ref=3 / deblock=1:0:0 / analyse=0x3:0x113 / me=hex / subme=7 / psy=1 / psy_rd=1.00:0.00 / mixed_ref=1 / me_range=16 / chroma_me=1 / trellis=1 / 8x8dct=1 / cqm=0 / deadzone=21,11 / fast_pskip=1 / chroma_qp_offset=-2 / threads=12 / lookahead_threads=2 / sliced_threads=0 / nr=0 / decimate=1 / interlaced=0 / bluray_compat=0 / constrained_intra=0 / bframes=3 / b_pyramid=2 / b_adapt=1 / b_bias=0 / direct=1 / weightb=1 / open_gop=0 / weightp=2 / keyint=250 / keyint_min=23 / scenecut=40 / intra_refresh=0 / rc_lookahead=40 / rc=crf / mbtree=1 / crf=20.5 / qcomp=0.60 / qpmin=0 / qpmax=69 / qpstep=4 / ip_ratio=1.40 / aq=1:1.00
Language : English
Default : Yes
Forced : No
Audio #2
ID : 2
Format : AC-3
Format/Info : Audio Coding 3
Mode extension : CM (complete main)
Format settings, Endianness : Big
Codec ID : A_AC3
Duration : 2h 13mn
Bit rate mode : Constant
Bit rate : 448 Kbps
Channel(s) : 6 channels
Channel positions : Front: L C R, Side: L R, LFE
Sampling rate : 48.0 KHz
Bit depth : 16 bits
Compression mode : Lossy
Stream size : 427 MiB (19%)
Title : Дубляж
Language : Russian
Default : Yes
Forced : No
Audio #3
ID : 3
Format : AC-3
Format/Info : Audio Coding 3
Mode extension : CM (complete main)
Format settings, Endianness : Big
Codec ID : A_AC3
Duration : 2h 13mn
Bit rate mode : Constant
Bit rate : 448 Kbps
Channel(s) : 6 channels
Channel positions : Front: L C R, Side: L R, LFE
Sampling rate : 48.0 KHz
Bit depth : 16 bits
Compression mode : Lossy
Stream size : 427 MiB (19%)
Title : Оригинал
Language : English
Default : No
Forced : No
Text #4
ID : 4
Format : UTF-8
Codec ID : S_TEXT/UTF8
Codec ID/Info : UTF-8 Plain Text
Title : Русские
Language : Russian
Default : No
Forced : No
Text #5
ID : 5
Format : UTF-8
Codec ID : S_TEXT/UTF8
Codec ID/Info : UTF-8 Plain Text
Title : Английские
Language : English
Default : No
Forced : No
picpicpic

Этот торрент недоступен для скачивания без регистрации, однако доступен по публичной magnet-ссылке (источники с публичных трекеров). Перед использованием ссылки прочтите, пожалуйста Пользовательское соглашение, а также как можно дольше оставайтесь на раздаче! Для того, чтобы скачать сам торрент-файл (который видит больше источников), а также для того, чтобы поблагодарить релизера, вам необходимо зарегистрироваться. Если регистрироваться лень - вы можете также попробовать скачать релиз по нашим партнерским ссылкам ниже.

[underverse.su].t23041.torrent
Трекер: Зарегистрирован   [ 05.01.2013 18:14 ]  

Статус: проверено (by Чертёнок at 05.01.2013 18:48)
Поблагодарили: пока никто не поблагодарил...
Тип торрента: публичный - доступные источники с открытых трекеров: 
Размер: 2,2 GB (занимает 0,5 DVDR, для записи нужно 1 болванка DVDR/RW)
 
 
Похожие темы
Форум Тема Автор Торрент Отв. Посл. сооб.
Зарубежное кино [DVDRip, Low-Res HDRip, и т.д.] Человек, который слишком мало знал / The Man Who Knew Too Little ( Джон Эмиел) [1997 г., комедия, DVDRip] STALKOID
0 | 0

2 | 1343

3

14.01.2011 18:06

Зарубежное кино [DVDRip, Low-Res HDRip, и т.д.] Человек, который изменил всё / Moneyball (Беннетт Миллер) [2011 г., драма, биография, спорт, DVDRip] RG NewCinema
0 | 0

0 | 937

3

16.11.2011 08:02

Зарубежное кино [DVDRip, Low-Res HDRip, и т.д.] Человек, который смеется / L'homme qui rit (Жан-Пьер Амери / Jean-Pierre Ameris) [2012 г., драма, DVDRip] MVO 90ytr90
0 | 0

0 | 1660

26

17.05.2013 13:42

Зарубежное кино [DVDRip, Low-Res HDRip, и т.д.] Человек, который плакал / U-neun nam-ja (Ли Чжон Бом) [2014 г., боевик, драма, HDRip] DVO (GREEN TEA) 90ytr90
1 | 0

0 | 479

9

24.02.2015 06:48

T Зарубежное кино [DVDRip, Low-Res HDRip, и т.д.] Человек, который познал бесконечность / The Man Who Knew Infinity (Мэтт Браун) [2015 г., драма, биография, HDRip] MVO makkol
419 | 16

0 | 389

14

18.08.2016 12:28

Наше кино [DVDRip, Low-Res HDRip, и т.д.] Человек, который знал всё (Владимир Мирзоев) [2009 г., драма, DVDRip] GanibalKing
0 | 0

7 | 1189

5

14.12.2012 21:38

Зарубежное кино [DVD / HDDVD / BD / Remux] Человек, которого не было / The Man Who Wasn't There (Джоэл Коэн / Joel Coen) [2001 г., драма, криминал, BD-Remux] [1080p] MVO + original + sub (rus, eng, fr) uzi2009
0 | 0

0 | 522

3

25.01.2014 22:59

T Зарубежное кино [HDDVDRip / BDRip / WEB-DL / HDTV 1080/720р] Человек, который познал бесконечность / The Man Who Knew Infinity (Мэтт Браун) [2015 г., драма, биография, BDRip 720p] MVO makkol
102 | 0

0 | 336

7

18.08.2016 12:33

T Зарубежное кино [HDDVDRip / BDRip / WEB-DL / HDTV 1080/720р] Человек, который познал бесконечность / The Man Who Knew Infinity (Мэтт Браун) [2015 г., драма, биография, BDRip 1080p] MVO makkol
42 | 1

0 | 355

7

18.08.2016 12:38


Яндекс.Метрика powered by Sphinx


В Н И М А Н И Е
Сайт не распространяет и не хранит электронные версии произведений, а лишь бесплатно и без коммерческой выгоды (не требуя взамен платы,
SMS и т.д.) предоставляет доступ к создаваемому пользователями каталогу ссылок на торрент-файлы, которые содержат только списки хеш-сумм.
Убедительная просьба с жалобами обращаться напрямую к пользователю, разместившему торрент файл.

Вверх