Loading...
Error

Франтишек-бабник / Frantisek je devkar (Jan Prusinovsky) [2008, комедия, DVDRip] VO (Kass)

Статистика раздачи
Размер:  1,34 GB   |    Зарегистрирован:  3 года 11 месяцев   |    Скачан:  3 раза

Полного источника не было: 3 года 10 месяцев

Сидов:  0  |  0 KB/s  ]   Личеров:  0  |  0 KB/s  ]

* - сиды/пиры с внешних источников

   
 
Автор Сообщение

Garnett Пол:Муж

05-Янв-2013 18:10

Франтишек-бабник / Frantisek je devkar
Страна: Чехия
Жанр: Комедия
Студия: Evolution Films
Год выпуска: 2008
Продолжительность: 01:20:36
Перевод: Одноголосый закадровый (женский) Kass
Cубтитры: нет
Режиссер: Jan Prusinovsky / Ян Прушиновский
В ролях: Josef Polasek / Йозеф Полашек, Ela Lehotska / Эла Лехотска, Martin Pechlat / Мартин Пехлат, Zdena Hadrbolcova / Здена Хадрболцова, Petra Nesvacilova / Петра Несвачилова, Leos Noha / Леош Ноха, Arnost Goldflam / Арношт Голдфлам и др.
Описание: Это комедия о людях и судьбах. Извечный вопрос, мы выбираем дороги или они выбирают нас.
Психиатр Франтишек не способен устоять перед женскими авансами, честно во всем признается жене, а если нет, бывает пойман с поличным. Адвокат Виктор - наоборот, всегда в правильное время в правильном месте, совершает правильные поступки, и язык у него подвешен. Ну и кто же в конце концов выиграет?
Кому-то все дается без труда, кто-то вечно в проигрыше, сколько ни бьется. Ну и вот, если кто родился таким, как Франтишек, все превозмог в себе и победил Судьбу, тот пусть и бросит в него камень.
Сэмпл: http://www.sendspace.com/file/tq4deo
Качество видео: DVDRip
Формат видео: AVI
Видео: Video: 720x400, XviD, 1922 kbps
Аудио: Audio: AC3, 3/2 448 kbps
General
Complete name : D:\FRANTISEK\AVI\Frantisek_je_devkar_2008_DVDrip_RusVO.avi
Format : AVI
Format/Info : Audio Video Interleave
File size : 1.34 GiB
Duration : 1h 20mn
Overall bit rate : 2 377 Kbps
Writing application : VirtualDubMod 1.5.4.1 (build 2178/release)
Writing library : VirtualDubMod build 2178/release
Video
ID : 0
Format : MPEG-4 Visual
Format profile : Advanced Simple@L5
Format settings, BVOP : No
Format settings, QPel : No
Format settings, GMC : No warppoints
Format settings, Matrix : Custom
Codec ID : XVID
Codec ID/Hint : XviD
Duration : 1h 20mn
Bit rate : 1 922 Kbps
Width : 720 pixels
Height : 400 pixels
Display aspect ratio : 16:9
Frame rate : 25.000 fps
Color space : YUV
Chroma subsampling : 4:2:0
Bit depth : 8 bits
Scan type : Progressive
Compression mode : Lossy
Bits/(Pixel*Frame) : 0.267
Stream size : 1.08 GiB (81%)
Writing library : XviD 64
Audio
ID : 1
Format : AC-3
Format/Info : Audio Coding 3
Mode extension : CM (complete main)
Format settings, Endianness : Big
Codec ID : 2000
Duration : 1h 20mn
Bit rate mode : Constant
Bit rate : 448 Kbps
Channel(s) : 6 channels
Channel positions : Front: L C R, Side: L R, LFE
Sampling rate : 48.0 KHz
Bit depth : 16 bits
Compression mode : Lossy
Stream size : 258 MiB (19%)
Alignment : Split accross interleaves
Interleave, duration : 96 ms (2.40 video frames)
Interleave, preload duration : 96 ms
Language : Russian
picpicpic

Этот торрент недоступен для скачивания без регистрации, однако доступен по публичной magnet-ссылке (источники с публичных трекеров). Перед использованием ссылки прочтите, пожалуйста Пользовательское соглашение, а также как можно дольше оставайтесь на раздаче! Для того, чтобы скачать сам торрент-файл (который видит больше источников), а также для того, чтобы поблагодарить релизера, вам необходимо зарегистрироваться. Если регистрироваться лень - вы можете также попробовать скачать релиз по нашим партнерским ссылкам ниже.

[underverse.su].t23040.torrent
Трекер: Зарегистрирован   [ 05.01.2013 18:10 ]  

Статус: проверено (by Чертёнок at 05.01.2013 18:44)
Поблагодарили: 1 человек
Тип торрента: публичный - доступные источники с открытых трекеров: 
Размер: 1,34 GB (занимает 0,31 DVDR, для записи нужно 1 болванка DVDR/RW)
 
 

Яндекс.Метрика powered by Sphinx


В Н И М А Н И Е
Сайт не распространяет и не хранит электронные версии произведений, а лишь бесплатно и без коммерческой выгоды (не требуя взамен платы,
SMS и т.д.) предоставляет доступ к создаваемому пользователями каталогу ссылок на торрент-файлы, которые содержат только списки хеш-сумм.
Убедительная просьба с жалобами обращаться напрямую к пользователю, разместившему торрент файл.

Вверх