Loading...
Error

Мария-Антуанетта / Marie Antoinette (София Коппола) [2006, драма, биография, история, HDRip] MVO + Original

Статистика раздачи
Размер:  2,01 GB   |    Зарегистрирован:  3 года 11 месяцев   |    Скачан:  15 раз

Полного источника не было: 6 месяцев

Сидов:  0  |  0 KB/s  ]   Личеров:  0  |  0 KB/s  ]

* - сиды/пиры с внешних источников

   
 
Автор Сообщение

Garnett Пол:Муж

02-Янв-2013 13:26

Мария-Антуанетта / Marie Antoinette

Страна: США, Франция, Япония
Жанр: драма, биография, история
Год выпуска: 2006
Продолжительность: 02:02:35
Перевод: Профессиональный (многоголосый, закадровый)
Оригинальная аудиодорожка: английский
Субтитры: нет
Режиссер: София Коппола / Sofia Coppola
В ролях: Кирстен Данст , Джейсон Шварцман , Джуди Дэвис , Рип Торн , Роуз Бирн , Азия Ардженто , Молли Шеннон , Ширли Хендерсон , Дэнни Хьюстон , Марианна Фэйтфулл , Мэри Найи , Себастьян Фернандес-Арместо
Описание: Блестящая и трагическая судьба французской королевы Марии-Антуанетты будет всегда изумлять и ужасать потомков. Беззаботное детство в семье отца, императора Австрии. Ранний брак в 15 лет - и с кем! - с наследником самого Людовика XV! Вступление на французский трон в 19 и полная бесконечных развлечений молодость среди роскоши Версаля. И, наконец, внезапная, ужасная смерть на гильотине под улюлюканье парижской черни. Историки говорят, что Мария-Антуанетта поплатилась головой за то, что ненавидела и не понимала простой народ. Но тогда придется признать, что эта остроумная и незаурядная женщина была примитивной стервой! У авторов данного фильма есть другая версия, которая призвана пролить свет на все темные места биографии самой знаменитой королевы в истории Франции...

Качество: HDRip (Исходник BDRip 1080p)
Контейнер: AVI
Видео: XviD, 720x400 (16:9), 1437 kbps, 24 fps, 0,208 bpp
Аудио №1: AC3 / 5.1 / 48 kHz / 448 kbps / 16 bit | MVO
Аудио №2: AC3 / 5.1 / 48 kHz / 448 kbps / 16 bit | Orig
General
Complete name : F:\Marie.Antoinette.2006.HDRip.avi
Format : AVI
Format/Info : Audio Video Interleave
Format profile : OpenDML
File size : 2.01 GiB
Duration : 2h 2mn
Overall bit rate : 2 352 Kbps
Writing application : VirtualDubModRus 1.5.10.2 (build 2542/release)
Writing library : VirtualDubMod build 2542/release
Video
ID : 0
Format : MPEG-4 Visual
Format profile : Advanced Simple@L5
Format settings, BVOP : 2
Format settings, QPel : No
Format settings, GMC : No warppoints
Format settings, Matrix : Default (MPEG)
Codec ID : XVID
Codec ID/Hint : XviD
Duration : 2h 2mn
Bit rate : 1 437 Kbps
Width : 720 pixels
Height : 400 pixels
Display aspect ratio : 16:9
Frame rate : 24.000 fps
Color space : YUV
Chroma subsampling : 4:2:0
Bit depth : 8 bits
Scan type : Progressive
Compression mode : Lossy
Bits/(Pixel*Frame) : 0.208
Stream size : 1.23 GiB (61%)
Writing library : XviD 65
Audio #1
ID : 1
Format : AC-3
Format/Info : Audio Coding 3
Mode extension : CM (complete main)
Codec ID : 2000
Duration : 2h 2mn
Bit rate mode : Constant
Bit rate : 448 Kbps
Channel(s) : 6 channels
Channel positions : Front: L C R, Side: L R, LFE
Sampling rate : 48.0 KHz
Bit depth : 16 bits
Compression mode : Lossy
Stream size : 393 MiB (19%)
Alignment : Split accross interleaves
Interleave, duration : 42 ms (1.00 video frame)
Interleave, preload duration : 500 ms
Audio #2
ID : 2
Format : AC-3
Format/Info : Audio Coding 3
Mode extension : CM (complete main)
Codec ID : 2000
Duration : 2h 2mn
Bit rate mode : Constant
Bit rate : 448 Kbps
Channel(s) : 6 channels
Channel positions : Front: L C R, Side: L R, LFE
Sampling rate : 48.0 KHz
Bit depth : 16 bits
Compression mode : Lossy
Stream size : 393 MiB (19%)
Alignment : Split accross interleaves
Interleave, duration : 42 ms (1.00 video frame)
Interleave, preload duration : 500 ms
picpicpic

Этот торрент недоступен для скачивания без регистрации, однако доступен по публичной magnet-ссылке (источники с публичных трекеров). Перед использованием ссылки прочтите, пожалуйста Пользовательское соглашение, а также как можно дольше оставайтесь на раздаче! Для того, чтобы скачать сам торрент-файл (который видит больше источников), а также для того, чтобы поблагодарить релизера, вам необходимо зарегистрироваться. Если регистрироваться лень - вы можете также попробовать скачать релиз по нашим партнерским ссылкам ниже.

[underverse.su].t22975.torrent
Трекер: Зарегистрирован   [ 02.01.2013 13:26 ]  

Статус: проверено (by garry at 03.01.2013 14:48)
Поблагодарили: 2 человека
Тип торрента: публичный - доступные источники с открытых трекеров: 
Размер: 2,01 GB (занимает 0,46 DVDR, для записи нужно 1 болванка DVDR/RW)
 
 
Похожие темы
Форум Тема Автор Торрент Отв. Посл. сооб.
Зарубежное кино [DVDRip, Low-Res HDRip, и т.д.] Мария-Антуанетта / Marie Antoinette (София Коппола / Sofia Coppola) [2006 г., драма, биография, история, BDRip-AVC] MVO + Original eng + Subs (Rus, Eng) garry
22 | 1

0 | 1492

11

23.10.2013 20:52


Яндекс.Метрика powered by Sphinx


В Н И М А Н И Е
Сайт не распространяет и не хранит электронные версии произведений, а лишь бесплатно и без коммерческой выгоды (не требуя взамен платы,
SMS и т.д.) предоставляет доступ к создаваемому пользователями каталогу ссылок на торрент-файлы, которые содержат только списки хеш-сумм.
Убедительная просьба с жалобами обращаться напрямую к пользователю, разместившему торрент файл.

Вверх