Loading...
Error

Срочная доставка / Premium Rush (Дэвид Кепп / David Koepp) [2012 г., боевик, триллер, BDRip-AVC] MVO

Статистика раздачи
Размер:  1,45 GB   |    Зарегистрирован:  3 года 11 месяцев   |    Скачан:  22 раза

Полного источника не было: 3 дня

Сидов:  0  |  0 KB/s  ]   Личеров:  0  |  0 KB/s  ]

* - сиды/пиры с внешних источников

   
 
Автор Сообщение

Garnett Пол:Муж

02-Янв-2013 13:19

Срочная доставка / Premium Rush
«Ride Like Hell»


Год выпуска: 2012
Страна: США
Жанр: боевик, триллер
Продолжительность: 01:30:57
Перевод: Профессиональный (многоголосый закадровый)

Режиссер: Дэвид Кепп
В ролях: Джозеф Гордон-Левитт, Дания Рамирез, Эшли Остин Моррис, Аасиф Мандви, Лорен Эшли Картер, Чарльз Борланд, Майкл Шеннон, Аарон Твейт, Джейми Чунг, Крис Плэйс, Шон Кеннеди, Ким Перфетто

Описание: Нью-йоркский посыльный в один прекрасный день забирает некий конверт в Колумбийском университете. Но оказывается, что содержимое послания очень интересует одного коррумпированного полицейского, который начинает преследование героя.

Качество: BDRip-AVC (исходник: Blu-Ray)
Формат: MKV
Видео кодек: x264
Аудио кодек: AC3
Видео: H.264, 1024x432 (2,40:1), 23.976 fps, 1832 kbps, 0.173 bit/pixel
Аудио: 48 kHz, AC3 Dolby Digital, 3/2 (L,C,R,l,r) + LFE ch, ~448 kbps
General
Complete name : D:\Фильмы зарубежные\Premium Rush.2012.BDRip-AVC.mkv
Format : Matroska
Format version : Version 2
File size : 1.45 GiB
Duration : 1h 30mn
Overall bit rate : 2 282 Kbps
Movie name : Срочная доставка / Premium Rush (2012) BDRip-AVC
Encoded date : UTC 2012-11-29 16:29:20
Writing application : mkvmerge v5.7.0 ('The Whirlwind') built on Jul 8 2012 20:08:51
Writing library : libebml v1.2.3 + libmatroska v1.3.0
Video
ID : 1
Format : AVC
Format/Info : Advanced Video Codec
Format profile : High@L4.1
Format settings, CABAC : Yes
Format settings, ReFrames : 10 frames
Codec ID : V_MPEG4/ISO/AVC
Duration : 1h 30mn
Bit rate : 1 832 Kbps
Width : 1 024 pixels
Height : 432 pixels
Display aspect ratio : 2.40:1
Frame rate mode : Constant
Frame rate : 23.976 fps
Color space : YUV
Chroma subsampling : 4:2:0
Bit depth : 8 bits
Scan type : Progressive
Bits/(Pixel*Frame) : 0.173
Stream size : 1.14 GiB (78%)
Writing library : x264 core 129 r2230 1cffe9f
Encoding settings : cabac=1 / ref=10 / deblock=1:-2:-1 / analyse=0x3:0x133 / me=umh / subme=10 / psy=1 / psy_rd=1.06:0.04 / mixed_ref=1 / me_range=32 / chroma_me=1 / trellis=2 / 8x8dct=1 / cqm=0 / deadzone=21,11 / fast_pskip=0 / chroma_qp_offset=-3 / threads=2 / lookahead_threads=1 / sliced_threads=0 / nr=0 / decimate=1 / interlaced=0 / bluray_compat=0 / constrained_intra=0 / bframes=5 / b_pyramid=2 / b_adapt=2 / b_bias=0 / direct=3 / weightb=1 / open_gop=0 / weightp=2 / keyint=240 / keyint_min=23 / scenecut=40 / intra_refresh=0 / rc_lookahead=40 / rc=2pass / mbtree=1 / bitrate=1832 / ratetol=1.0 / qcomp=0.60 / qpmin=10 / qpmax=51 / qpstep=4 / cplxblur=20.0 / qblur=0.5 / ip_ratio=1.40 / aq=2:1.00
Default : Yes
Forced : No
Audio
ID : 2
Format : AC-3
Format/Info : Audio Coding 3
Mode extension : CM (complete main)
Format settings, Endianness : Big
Codec ID : A_AC3
Duration : 1h 30mn
Bit rate mode : Constant
Bit rate : 448 Kbps
Channel(s) : 6 channels
Channel positions : Front: L C R, Side: L R, LFE
Sampling rate : 48.0 KHz
Bit depth : 16 bits
Compression mode : Lossy
Stream size : 291 MiB (20%)
Title : Многоголосый закадровый
Language : Russian
Default : Yes
picpicpic

Этот торрент недоступен для скачивания без регистрации, однако доступен по публичной magnet-ссылке (источники с публичных трекеров). Перед использованием ссылки прочтите, пожалуйста Пользовательское соглашение, а также как можно дольше оставайтесь на раздаче! Для того, чтобы скачать сам торрент-файл (который видит больше источников), а также для того, чтобы поблагодарить релизера, вам необходимо зарегистрироваться. Если регистрироваться лень - вы можете также попробовать скачать релиз по нашим партнерским ссылкам ниже.

[underverse.su].t22973.torrent
Трекер: Зарегистрирован   [ 02.01.2013 13:19 ]  

Статус: проверено (by garry at 03.01.2013 13:39)
Поблагодарили: 2 человека
Тип торрента: публичный - доступные источники с открытых трекеров: 
Размер: 1,45 GB (занимает 1/3 DVDR, для записи нужно 1 болванка DVDR/RW)
 
 
Похожие темы
Форум Тема Автор Торрент Отв. Посл. сооб.
Зарубежное кино [DVDRip, Low-Res HDRip, и т.д.] Срочная доставка / Premium Rush (Дэвид Кепп) [2012 г., боевик, триллер, HDRip] MVO 90ytr90
0 | 0

0 | 458

3

06.12.2012 20:44

Зарубежное кино [DVDRip, Low-Res HDRip, и т.д.] Срочная доставка / Premium Rush (Дэвид Кепп) [2012 г., боевик, триллер, BDRip] MVO 90ytr90
2 | 0

0 | 1347

21

21.12.2012 08:06

Зарубежное кино [DVD / HDDVD / BD / Remux] Срочная доставка / Premium Rush (Дэвид Кепп) [2012 г., боевик, триллер, DVD9] R5 90ytr90
1 | 0

0 | 982

2

06.12.2012 20:08

Зарубежное кино [HDDVDRip / BDRip / WEB-DL / HDTV 1080/720р] Срочная доставка / Premium Rush (Дэвид Кепп) [2012, США, боевик, триллер, BDRip 1080p] MVO + Original Eng + Sub (Rus, Ukr, Eng) Garnett
12 | 0

0 | 559

5

07.12.2012 13:51


Яндекс.Метрика powered by Sphinx


В Н И М А Н И Е
Сайт не распространяет и не хранит электронные версии произведений, а лишь бесплатно и без коммерческой выгоды (не требуя взамен платы,
SMS и т.д.) предоставляет доступ к создаваемому пользователями каталогу ссылок на торрент-файлы, которые содержат только списки хеш-сумм.
Убедительная просьба с жалобами обращаться напрямую к пользователю, разместившему торрент файл.

Вверх