Loading...
Error

Миссис Чудо / Mrs. Miracle (Майкл Скотт) [2009, Фэнтези, семейный, комедия, SATRip] MVO (Дисней)

Статистика раздачи
Размер:  1,33 GB   |    Зарегистрирован:  3 года 11 месяцев   |    Скачан:  23 раза

Полного источника не было: 10 месяцев

Сидов:  0  |  0 KB/s  ]   Личеров:  0  |  0 KB/s  ]

* - сиды/пиры с внешних источников

   
 
Автор Сообщение

Garnett Пол:Муж

02-Янв-2013 13:15

Миссис Чудо / Mrs. Miracle
Страна: США
Жанр: Фэнтези, семейный, комедия
Год выпуска: 2009
Продолжительность: 01:27:47
Перевод: Профессиональный (многоголосый закадровый) Дисней
Cубтитры: нет
Оригинальная аудиодорожка: нет
Режиссер: Майкл Скотт / Michael Scott
В ролях: Дорис Робертс, Джеймс Ван Дер Бик, Эрин Карплак, Чела Хорсдэл, Далила Бела, Рикки Гань, Питер Грэхэм-Годрэу
Описание: Вдовец Сэт Вебстер ищет экономку для ухода за его недисциплинированными шестилетними мальчиками-близнецами. Но все его старания тщетны - дети "выживают" каждую вновь пришедшую экономку. Таинственным образом появляется "Миссис Чудо" и становится для этой семьи незаменимой няней, поваром, другом и свахой.

Качество видео: SATRip
Формат видео: mpg
Видео: MPEG2 Video 720x576 (4:3) 25.0 fps Bit rate 1936 Kbps Bits/(Pixel*Frame) 0.187
Аудио: MPEG Audio 48.0 KHz 2ch 192Kbps
General
Complete name : D:\Torrent\Миссис Чудо.mpg
Format : MPEG-PS
File size : 1.33 GiB
Duration : 1h 27mn
Overall bit rate : 2 171 Kbps
Writing library : encoded by TMPGEnc Video Mastering Works 5 Version. 5.0.6.38
Video
ID : 224 (0xE0)
Format : MPEG Video
Format version : Version 2
Format profile : Main@Main
Format settings, BVOP : Yes
Format settings, Matrix : Default
Format settings, GOP : M=3, N=15
Duration : 1h 27mn
Bit rate mode : Variable
Bit rate : 1 936 Kbps
Nominal bit rate : 10 000 Kbps
Width : 720 pixels
Height : 576 pixels
Display aspect ratio : 4:3
Frame rate : 25.000 fps
Standard : PAL
Color space : YUV
Chroma subsampling : 4:2:0
Bit depth : 8 bits
Scan type : Interlaced
Scan order : Top Field First
Bits/(Pixel*Frame) : 0.187
Stream size : 1.19 GiB (89%)
Writing library : TMPGEnc Video Mastering Works 5 Version. 5.0.6.38
Audio
ID : 192 (0xC0)
Format : MPEG Audio
Format version : Version 1
Format profile : Layer 2
Duration : 1h 27mn
Bit rate mode : Constant
Bit rate : 192 Kbps
Channel(s) : 2 channels
Sampling rate : 48.0 KHz
Stream size : 121 MiB (9%)
picpicpic

Этот торрент недоступен для скачивания без регистрации, однако доступен по публичной magnet-ссылке (источники с публичных трекеров). Перед использованием ссылки прочтите, пожалуйста Пользовательское соглашение, а также как можно дольше оставайтесь на раздаче! Для того, чтобы скачать сам торрент-файл (который видит больше источников), а также для того, чтобы поблагодарить релизера, вам необходимо зарегистрироваться. Если регистрироваться лень - вы можете также попробовать скачать релиз по нашим партнерским ссылкам ниже.

[underverse.su].t22972.torrent
Трекер: Зарегистрирован   [ 02.01.2013 13:15 ]  

Статус: проверено (by garry at 03.01.2013 14:57)
Поблагодарили: 1 человек
Тип торрента: публичный - доступные источники с открытых трекеров: 
Размер: 1,33 GB (занимает 0,3 DVDR, для записи нужно 1 болванка DVDR/RW)
 
 


Последний раз редактировалось: Garnett (03.01.2013 14:53), всего редактировалось 1 раз

Яндекс.Метрика powered by Sphinx


В Н И М А Н И Е
Сайт не распространяет и не хранит электронные версии произведений, а лишь бесплатно и без коммерческой выгоды (не требуя взамен платы,
SMS и т.д.) предоставляет доступ к создаваемому пользователями каталогу ссылок на торрент-файлы, которые содержат только списки хеш-сумм.
Убедительная просьба с жалобами обращаться напрямую к пользователю, разместившему торрент файл.

Вверх