Loading...
Error

Все ради нее / Pour elle (Фред Кавайе) [2008, триллер, драма, криминал, BDRip] MVO

Статистика раздачи
Размер:  1,45 GB   |    Зарегистрирован:  3 года 11 месяцев   |    Скачан:  4 раза

Полного источника не было: 1 год

Сидов:  0  |  0 KB/s  ]   Личеров:  0  |  0 KB/s  ]

* - сиды/пиры с внешних источников

   
 
Автор Сообщение

Garnett Пол:Муж

02-Янв-2013 13:12

Все ради нее / Pour elle
Страна: Франция, Испания
Жанр: триллер, драма, криминал
Год выпуска: 2008
Продолжительность: 01:36:33
Перевод: Профессиональный (многоголосый закадровый)
Cубтитры: нет
Режиссер: Фред Кавайе / Fred Cavayе
В ролях: Венсан Линдон, Дайан Крюгер, Ланселот Рош, Оливье, Маршаль, Хамму Грайа, Лилиан Ровер, Оливье Перье, Мусса Мааскри, Реми Мартен, Тьерри Годар
Описание: Лиза, Жюльен и их маленький сын Оскар — счастливая семья. Но однажды утром полиция приезжает за Лизой. Её обвиняют в преднамеренном убийстве. Все улики свидетельствуют против неё. И теперь Жюльен, обычный учитель французского, готов сделать всё, чтобы спасти жену. Даже если ему придётся переступить границы закона.
Качество видео: BDRip (Blu-Ray Remux/1080p)
Формат видео: AVI
Видео: 720x304 (2.37:1), 23.976 fps, XviD build 57 ~1760 kbps avg, 0.34 bit/pixel
Аудио: 48 kHz, AC3 Dolby Digital, 3/2 (L,C,R,l,r) + LFE ch, 384.00 kbps
Общее
Полное имя : C:\Vse.radi.nee.2008.RUS.BDRip.XviD.AC3.-HQCLUB.avi
Формат : AVI
Формат/Информация : Audio Video Interleave
Размер файла : 1,45 Гбайт
Продолжительность : 1 ч. 36 м.
Общий поток : 2154 Кбит/сек
Название фильма : Vse.radi.nee.2008.RUS.BDRip.XviD.AC3.-HQCLUB
Программа кодирования : VirtualDubMod 1.5.10.2 (build 2542/release)
Видео
Идентификатор : 0
Формат : MPEG-4 Visual
Профиль формата : Advanced Simple@L5
Параметр BVOP формата : 1
Параметр QPel формата : Нет
Параметр GMC формата : Без точки перехода
Параметр матрицы формата : Выборочная
Идентификатор кодека : XVID
Идентификатор кодека/Подсказка : XviD
Продолжительность : 1 ч. 36 м.
Битрейт : 1761 Кбит/сек
Ширина : 720 пикселей
Высота : 304 пикселя
Соотношение сторон : 2,35:1
Частота кадров : 23,976 кадра/сек
Цветовое пространство : YUV
Субдискретизация насыщенности : 4:2:0
Битовая глубина : 8 бит
Тип развёртки : Прогрессивная
Метод сжатия : С потерями
Бит/(Пиксели*Кадры) : 0.335
Размер потока : 1,19 Гбайт (82%)
Библиотека кодирования : XviD 57
Аудио
Идентификатор : 1
Формат : AC-3
Формат/Информация : Audio Coding 3
Расширение режима : CM (complete main)
Идентификатор кодека : 2000
Продолжительность : 1 ч. 36 м.
Вид битрейта : Постоянный
Битрейт : 384 Кбит/сек
Каналы : 6 каналов
Расположение каналов : Front: L C R, Side: L R, LFE
Частота : 48,0 КГц
Битовая глубина : 16 бит
Метод сжатия : С потерями
Размер потока : 265 Мбайт (18%)
Выравнивание : Разделение по промежуткам
Продолжительность промежутка : 42 мс. (1,00 видеокадр)
Время предзагрузки промежутка : 500 мс.
picpicpic

Этот торрент недоступен для скачивания без регистрации, однако доступен по публичной magnet-ссылке (источники с публичных трекеров). Перед использованием ссылки прочтите, пожалуйста Пользовательское соглашение, а также как можно дольше оставайтесь на раздаче! Для того, чтобы скачать сам торрент-файл (который видит больше источников), а также для того, чтобы поблагодарить релизера, вам необходимо зарегистрироваться. Если регистрироваться лень - вы можете также попробовать скачать релиз по нашим партнерским ссылкам ниже.

[underverse.su].t22971.torrent
Трекер: Зарегистрирован   [ 02.01.2013 13:13 ]  

Статус: проверено (by garry at 03.01.2013 13:35)
Поблагодарили: пока никто не поблагодарил...
Тип торрента: публичный - доступные источники с открытых трекеров: 
Размер: 1,45 GB (занимает 1/3 DVDR, для записи нужно 1 болванка DVDR/RW)
 
 

Яндекс.Метрика powered by Sphinx


В Н И М А Н И Е
Сайт не распространяет и не хранит электронные версии произведений, а лишь бесплатно и без коммерческой выгоды (не требуя взамен платы,
SMS и т.д.) предоставляет доступ к создаваемому пользователями каталогу ссылок на торрент-файлы, которые содержат только списки хеш-сумм.
Убедительная просьба с жалобами обращаться напрямую к пользователю, разместившему торрент файл.

Вверх