Loading...
Error

Виктория / Серии: 1-8 (8) (Андрей Джунковский) [2012, Остросюжетная мелодрама, SATRip]

Статистика раздачи
Размер:  4,19 GB   |    Зарегистрирован:  3 года 11 месяцев   |    Скачан:  8 раз

Полного источника не было: 1 год 6 месяцев

Сидов:  0  |  0 KB/s  ]   Личеров:  0  |  0 KB/s  ]

* - сиды/пиры с внешних источников

   
 
Автор Сообщение

nemos Пол:Муж

01-Янв-2013 23:08



Год выпуска: 2012
Жанр: Остросюжетная мелодрама
Страна: Россия
Режиссер: Андрей Джунковский
В ролях: Татьяна Арнтгольц, Александр Ратников, Сергей Перегудов, Александр ПоловцевЭльдар Трамов,
Виктория с мужем Володей и сыном Антоном живет в далеком военном гарнизоне. Но их спокойная и размеренная жизнь рушится в одночасье. Володю увольняют в связи с армейской реформой, и он идет служить по контракту на границу Узбекистана и Шарифстана. Пройдет немного времени и Виктория узнает, что Володя пропал в горах, после чего при таинственных обстоятельствах исчезнет еще и сын Антошка. Вместе со своим другом детства Юрой, который давно и безнадежно влюблен в Викторию, героиня отправляется на поиски своего мужа и сына в полную опасностей и приключений восточную страну Шарифстан.


Качество видео: SatRip

Продолжительность: 00:58:15 серия
Формат: AVI
Видео: XviD, 720 х 384, 1 302 kbps
Аудио: русский, MP3 2.0, 128 kbps

Код:

F:\СКАЧКИ\С underverse\Виктория..2012. SATRip\Виктория.08.2012. SATRip.avi
   General
      Complete name : F:\СКАЧКИ\С underverse\Виктория..2012. SATRip\Виктория.08.2012. SATRip.avi
      Format : AVI
      Format/Info : Audio Video Interleave
      File size : 600 MiB
      Duration : 58mn 15s
      Overall bit rate : 1 440 Kbps
      Writing application : VirtualDubMod 1.5.10.2 (build 2540/release)
      Writing library : VirtualDubMod build 2540/release
   Video #0
      ID : 0
      Format : MPEG-4 Visual
      Format profile : Simple@L3
      Format settings, BVOP : No
      Format settings, QPel : No
      Format settings, GMC : No warppoints
      Format settings, Matrix : Default (H.263)
      Codec ID : XVID
      Codec ID/Hint : XviD
      Duration : 58mn 15s
      Bit rate : 1 302 Kbps
      Width : 720 pixels
      Height : 384 pixels
      Display aspect ratio : 1.85:1
      Frame rate : 25.000 fps
      Color space : YUV
      Chroma subsampling : 4:2:0
      Bit depth : 8 bits
      Scan type : Progressive
      Compression mode : Lossy
      Bits/(Pixel*Frame) : 0.188
      Stream size : 543 MiB (90%)
      Writing library : XviD 1.1.2 (UTC 2006-11-01)
   Audio #1
      ID : 1
      Format : MPEG Audio
      Format version : Version 1
      Format profile : Layer 3
      Mode : Joint stereo
      Mode extension : MS Stereo
      Codec ID : 55
      Codec ID/Hint : MP3
      Duration : 58mn 15s
      Bit rate mode : Constant
      Bit rate : 128 Kbps
      Channel(s) : 2 channels
      Sampling rate : 48.0 KHz
      Compression mode : Lossy
      Stream size : 53.3 MiB (9%)
      Alignment : Split accross interleaves
      Interleave, duration : 40 ms (1.00 video frame)
      Interleave, preload duration : 500 ms
      Writing library : LAME3.98
Семпл: http://multi-up.com/811134

picpicpicpicpicpicpicpicpicpicpicpicpicpicpicpicpicpic
Для увеличения картинки щелкните мышкой по превью

Этот торрент недоступен для скачивания без регистрации, однако доступен по публичной magnet-ссылке (источники с публичных трекеров). Перед использованием ссылки прочтите, пожалуйста Пользовательское соглашение, а также как можно дольше оставайтесь на раздаче! Для того, чтобы скачать сам торрент-файл (который видит больше источников), а также для того, чтобы поблагодарить релизера, вам необходимо зарегистрироваться. Если регистрироваться лень - вы можете также попробовать скачать релиз по нашим партнерским ссылкам ниже.

[underverse.su].t22965.torrent
Трекер: Зарегистрирован   [ 01.01.2013 23:08 ]  

Статус: проверено (by Garnett at 02.01.2013 14:08)
Поблагодарили: 2 человека
Тип торрента: публичный - доступные источники с открытых трекеров: 
Размер: 4,19 GB (занимает 0,96 DVDR, для записи нужно 1 болванка DVDR/RW)
 
 
Похожие темы
Форум Тема Автор Торрент Отв. Посл. сооб.
T Зарубежное кино [DVDRip, Low-Res HDRip, и т.д.] Виктория / Victoria (Себастьян Шиппер) [2015 г., триллер, драма, криминал, HDRip] MVO (iTunes) makkol
6 | 0

0 | 400

5

18.05.2016 23:00

% Зарубежное кино [DVDRip, Low-Res HDRip, и т.д.] Виктория / Victoria (Себастьян Шиппер / Sebastian Schipper) [2015 г., триллер, драма, криминал, HDRip] MVO (iTunes) 90ytr90
15 | 1

0 | 340

9

19.05.2016 07:33

T Зарубежное кино [HDDVDRip / BDRip / WEB-DL / HDTV 1080/720р] Виктория / Victoria (Себастьян Шиппер / Sebastian Schipper) [2015 г., триллер, драма, криминал, BDRip 720p] MVO (iTunes) + Original (Ger) + Subs 90ytr90
3 | 0

0 | 512

9

19.05.2016 09:13

T Зарубежное кино [HDDVDRip / BDRip / WEB-DL / HDTV 1080/720р] Виктория / Victoria (Себастьян Шиппер / Sebastian Schipper) [2015 г., триллер, драма, криминал, BDRip 1080p] MVO (iTunes) + Original (Ger) + Sub (Eng) 90ytr90
3 | 0

0 | 526

5

20.05.2016 06:33



Последний раз редактировалось: nemos (06.11.2014 07:04), всего редактировалось 1 раз

nemos Пол:Муж

13-Авг-2014 19:44

:super:

Яндекс.Метрика powered by Sphinx


В Н И М А Н И Е
Сайт не распространяет и не хранит электронные версии произведений, а лишь бесплатно и без коммерческой выгоды (не требуя взамен платы,
SMS и т.д.) предоставляет доступ к создаваемому пользователями каталогу ссылок на торрент-файлы, которые содержат только списки хеш-сумм.
Убедительная просьба с жалобами обращаться напрямую к пользователю, разместившему торрент файл.

Вверх