Loading...
Error

Параллельные миры / Upside Down (Хуан Диего Соланас) [2012 г., драма, мелодрама, фэнтези, BDRip-AVC] Dub

Статистика раздачи
Размер:  1,46 GB   |    Зарегистрирован:  3 года 11 месяцев   |    Скачан:  23 раза

Полного источника не было: 10 месяцев

Сидов:  0  |  0 KB/s  ]   Личеров:  0  |  0 KB/s  ]

* - сиды/пиры с внешних источников

   
 
Автор Сообщение

Garnett Пол:Муж

30-Дек-2012 19:47

Параллельные миры / Upside Down
«Упасть, чтобы взлететь»


Год выпуска: 2012
Страна: Канада, Франция
Жанр: драма, фэнтези, мелодрама
Продолжительность: 01:47:50
Перевод: Профессиональный (полное дублирование)
Субтитры: нет

Режиссер: Хуан Диего Соланас
В ролях: Кирстен Данст, Джим Стёрджесс, Нил Напье, Стелла Маив, Джэйн Хейтмейер, Ларри Дэй, Джон МакЛарен, Дон Джордан, Холли О’Брайэн

Описание: Однажды, несколько тысяч лет тому назад, две планеты притянулись друг к другу. Там правили мир и гармония. Но стоило верхнему миру обрести уверенность и власть, как между планетами началось противостояние. Казалось, ничто не может примирить параллельные миры.
Она из верхнего мира. Эта хрупкая девушка с сильным характером и не подозревала, что душа ее способна любить. Он — ее половина. Их встреча была предопределена свыше, их судьбы переплелись воедино. Сможет ли Он, вопреки законам физики своего мира, быть вместе со своей любимой?

Автор рипа: potroks

Качество: BDRip-AVC (исходник: Blu-Ray)
Формат: MKV
Видео кодек: x264
Аудио кодек: AC3
Видео: H.264, 960x424 (2,25:1), 23,976 кадр/сек, 1555 Кбит/сек, 0.159 bit/pixel
Аудио: 48 kHz, AC3 Dolby Digital, 3/2 (L,C,R,l,r) + LFE ch, ~384.00 kbps avg
General
Complete name : D:\Фильмы зарубежные\Parallel'nye.Miry.2012.D.BDRip.x264.potroks.mkv
Format : Matroska
Format version : Version 2
File size : 1.46 GiB
Duration : 1h 47mn
Overall bit rate : 1 938 Kbps
Movie name : -=POTROKS=-
Encoded date : UTC 2012-09-28 17:06:39
Writing application : mkvmerge v5.7.0 ('The Whirlwind') built on Jul 8 2012 20:08:51
Writing library : libebml v1.2.3 + libmatroska v1.3.0
Video
ID : 1
Format : AVC
Format/Info : Advanced Video Codec
Format profile : High@L4.1
Format settings, CABAC : Yes
Format settings, ReFrames : 10 frames
Codec ID : V_MPEG4/ISO/AVC
Duration : 1h 47mn
Bit rate : 1 555 Kbps
Width : 960 pixels
Height : 424 pixels
Display aspect ratio : 2.25:1
Frame rate mode : Constant
Frame rate : 23.976 fps
Color space : YUV
Chroma subsampling : 4:2:0
Bit depth : 8 bits
Scan type : Progressive
Bits/(Pixel*Frame) : 0.159
Stream size : 1.14 GiB (78%)
Title : Parallel'nye.Miry.2012.D.BDRip.x264.potroks
Writing library : x264 core 116 r2019M 9cc407d
Encoding settings : cabac=1 / ref=11 / deblock=1:-3:-3 / analyse=0x3:0x133 / me=umh / subme=10 / psy=1 / psy_rd=1.00:0.00 / mixed_ref=1 / me_range=48 / chroma_me=1 / trellis=2 / 8x8dct=1 / cqm=0 / deadzone=21,11 / fast_pskip=0 / chroma_qp_offset=-2 / threads=8 / sliced_threads=0 / nr=0 / decimate=1 / interlaced=0 / bluray_compat=0 / constrained_intra=0 / bframes=12 / b_pyramid=1 / b_adapt=2 / b_bias=0 / direct=3 / weightb=1 / open_gop=0 / weightp=2 / keyint=240 / keyint_min=23 / scenecut=40 / intra_refresh=0 / rc_lookahead=100 / rc=2pass / mbtree=1 / bitrate=1555 / ratetol=1.0 / qcomp=0.70 / qpmin=10 / qpmax=51 / qpstep=4 / cplxblur=20.0 / qblur=0.5 / vbv_maxrate=20000 / vbv_bufsize=20000 / nal_hrd=none / ip_ratio=1.35 / aq=2:1.00
Language : English
Default : Yes
Forced : No
Audio
ID : 2
Format : AC-3
Format/Info : Audio Coding 3
Mode extension : CM (complete main)
Format settings, Endianness : Big
Codec ID : A_AC3
Duration : 1h 47mn
Bit rate mode : Constant
Bit rate : 384 Kbps
Channel(s) : 6 channels
Channel positions : Front: L C R, Side: L R, LFE
Sampling rate : 48.0 KHz
Bit depth : 16 bits
Compression mode : Lossy
Stream size : 296 MiB (20%)
Language : Russian
Default : Yes
Forced : No
picpicpic

Этот торрент недоступен для скачивания без регистрации, однако доступен по публичной magnet-ссылке (источники с публичных трекеров). Перед использованием ссылки прочтите, пожалуйста Пользовательское соглашение, а также как можно дольше оставайтесь на раздаче! Для того, чтобы скачать сам торрент-файл (который видит больше источников), а также для того, чтобы поблагодарить релизера, вам необходимо зарегистрироваться. Если регистрироваться лень - вы можете также попробовать скачать релиз по нашим партнерским ссылкам ниже.

[underverse.su].t22930.torrent
Трекер: Зарегистрирован   [ 30.12.2012 19:47 ]  

Статус: проверено (by garry at 30.12.2012 21:50)
Поблагодарили: 1 человек
Тип торрента: публичный - доступные источники с открытых трекеров: 
Размер: 1,46 GB (занимает 0,33 DVDR, для записи нужно 1 болванка DVDR/RW)
 
 
Похожие темы
Форум Тема Автор Торрент Отв. Посл. сооб.
Зарубежное кино [DVDRip, Low-Res HDRip, и т.д.] Параллельные миры / Upside Down (Хуан Диего Соланас) [2012 г., фэнтези, мелодрама, DVDRip] Dub [лицензия] 90ytr90
6 | 1

2 | 1478

301

08.10.2012 04:59

Зарубежное кино [DVDRip, Low-Res HDRip, и т.д.] Параллельные миры / Upside Down (Хуан Диего Соланас) [2012 г., фэнтези, мелодрама, HDRip] Dub [лицензия] RG NewCinema
3 | 0

4 | 3618

363

07.02.2013 08:49

Зарубежное кино [DVDRip, Low-Res HDRip, и т.д.] Параллельный мир / Клёвый мир / Cool World ( Ральф Бакши) [1992 г., Мультфильм, фэнтези, комедия, HDTVRip-AVC] AVO + MVO + DVO + Original Чертёнок
2 | 0

0 | 1669

11

01.03.2013 21:56

Наше кино [DVDRip, Low-Res HDRip, и т.д.] Параллельные миры (Ермек Аманшаев) [2013 г., мелодрама, DVDRip] 90ytr90
0 | 0

0 | 465

20

24.02.2014 15:01

xUSSR сериалы Параллельная жизнь / Серии: 1-12 из 12 (Сергей Бобров ) [2013 г., детектив, приключения, SatRip] konopic
0 | 0

0 | 535

18

03.02.2014 12:36

Зарубежное кино [HDDVDRip / BDRip / WEB-DL / HDTV 1080/720р] Параллельные миры в 3D / Upside Down in 3D (Хуан Диего Соланас) [2012 г., фэнтези, мелодрама,, BDRip 1080p] Dub Анаглиф (Дюбуа) slaventi-69
0 | 0

0 | 833

7

28.06.2013 14:42

Madiar Пол:Муж

31-Дек-2012 11:26

Где рейтинги?

garry Пол:Муж

31-Дек-2012 13:11

Madiar
сколько можно задавать один и тот же вопрос в каждой теме? напишите ЛС ему да и все. выясните, что за дела такие. указание рейтинга ИМДБ и Кинопоиска остается на совести релизера: нет их - значит нет, есть - хорошо. обязательным этот пункт является только для "Новинок".

Madiar Пол:Муж

31-Дек-2012 15:06

gari писал(а):

Madiar
сколько можно задавать один и тот же вопрос в каждой теме? напишите ЛС ему да и все. выясните, что за дела такие. указание рейтинга ИМДБ и Кинопоиска остается на совести релизера: нет их - значит нет, есть - хорошо. обязательным этот пункт является только для "Новинок".
Вы у меня все раз спрашивали/требовали исправить ошибки.
А тут сам "Модератор" ошибки допускает...

garry Пол:Муж

31-Дек-2012 16:32

Madiar
Вы сначала начните с себя, а потом уже от других требуйте. глядя на Ваш релиз, который мы мучали и в итоге мне пришлось самому дооформлять, хотелось просто плакать.
я еще раз говорю - обязательным рейтинг КП и ИМДБ является только в релизах новинок (camrip, TS, DVDScr), в обычных релизах - на совести релизера. можете пройтись по ветке и посмотреть еще. там будут и другие без рейтинга. так что умерьте свой неосязаемый пыл и лучше пойдите покажите всем нам, как нужно создавать "правильные" релизы.

BlackPanther Пол:Муж

06-Фев-2013 12:36

Thanks!

Яндекс.Метрика powered by Sphinx


В Н И М А Н И Е
Сайт не распространяет и не хранит электронные версии произведений, а лишь бесплатно и без коммерческой выгоды (не требуя взамен платы,
SMS и т.д.) предоставляет доступ к создаваемому пользователями каталогу ссылок на торрент-файлы, которые содержат только списки хеш-сумм.
Убедительная просьба с жалобами обращаться напрямую к пользователю, разместившему торрент файл.

Вверх