Loading...
Error

Право на правду / Серии: 1-32 (32) (Николай Барышников) [2012, Детектив, криминал, SATRip]

Статистика раздачи
Размер:  19,82 GB   |    Зарегистрирован:  3 года 9 месяцев   |    Скачан:  5 раз

Полного источника не было: 1 год 3 месяца

Сидов:  0  |  0 KB/s  ]   Личеров:  0  |  0 KB/s  ]

* - сиды/пиры с внешних источников

   
 
Автор Сообщение

nemos Пол:Муж

30-Дек-2012 17:38



Год выпуска: 2012
Жанр: криминал, детектив
Страна: Россия
Режиссер: Николай Барышников
В ролях: Елена Ксенофонтова, Борис Хвошнянский, Илья Исаев, Сергей Никоненко, Артур Ваха, Артем Осипов, Дарья Лузина, Ольга Торощина, Марина Коняшкина, Евгений Косырев, Денис Варенов, Александр Никольский (II), Евгения Чиркова, Алексей Кирсанов, Надежда Исайкина, Андрей Курилов, Анастасия Сапожникова, Дмитрий Собачкин, Николай Цонку, Владимир Ширяев (II), Дмитрий Рябов, Альбина Скобелева, Полина Ганшина, Всеволод Яшкин, Наталья Тетенова, Александра Булычёва, Надежда Егорова, Ольга Моховая, Виктор Конухин, Александр Пугачев (II), Олег Масленников (II), Александр Касаткин (II), Дмитрий Воронин, Владимир Гараев, Валентина Кошкина, Игорь Поселенов, Оксана Тимановская, Елена Медведева
При Следственном комитете Москвы создается специальный отдел, который должен заниматься расследованием случаев жестокого обращения. В компетенцию отдела входят расследования случаев физического и морального насилия в государственных учреждениях, вопиющие случаи несоблюдения прав человека, связанные с пытками и насилием, невыполнение служебных обязанностей органами следствия, жестокое обращение с детьми, женщинами, стариками. Курирующий этот спецотдел московский обмудсмен Сергей Прохоров выбирает на должность начальника судью Ольгу Байкову, отличающуюся независимым характером. Прохоров обещает Байковой, что отдел она сформирует сама. Ольга приступает к своим обязанностям. Первый человек, которого она предлагает в качестве эксперта, известный судебный психиатр Павел Митрохин. Оперативников выбирает тоже Ольга. Это ее ученики - неразлучная парочка, именуемая «волки и овцы». Вечные соперники и пикировщики Саша Волков и Ангелина Овечкина. Если Саша умен, душевно тонок, интеллигентен, то – Ангелина считается «инфан террибле», при этом – Саша внешне похож на демона, а Ангелина – просто ангел с картины Ботичелли. Байкова вынуждена согласиться на «человека от руководства». Это следователь Игорь Аржановский. Застегнутый на все пуговицы, исполнительный, умный, непробиваемо спокойный, но – резко выпадающий из «обоймы». Ольга считает его конформистом, Митрохин – заурядным карьеристом. Последним сотрудником отдела становится Егор Сумароков – «компьютерный гений без образования». Итак, отдел набран. Прохоров объясняет им всю сложность их работы. К ним будут попадать самые вопиющие факты нарушения прав человека, связанные с физическим и моральным насилием. Естественно, им часто будут противостоять, будет и противодействие со стороны силовых структур. Они должны помнить, те, кто проявляет бессмысленную жестокость, надеются на свою безнаказанность. И сегодня их надежды чаще всего сбываются. Спецотдел должен положить этому конец.


Качество видео: SatRip

Продолжительность: 00:43:33серия
Формат: AVI
Видео: XviD, 720x384 , 1901kbps
Аудио: русский, MP3 2.0, 192 kbps

Код:

F:\СКАЧКИ\С underverse\Pravo.na.pravdu.2012.XviD.SATRip.Files-x\Pravo.na.pravdu.(01.seriya).2012.XviD.SATRip.Files-x.avi
   General
      Complete name : F:\СКАЧКИ\С underverse\Pravo.na.pravdu.2012.XviD.SATRip.Files-x\Pravo.na.pravdu.(01.seriya).2012.XviD.SATRip.Files-x.avi
      Format : AVI
      Format/Info : Audio Video Interleave
      File size : 655 MiB
      Duration : 43mn 33s
      Overall bit rate : 2 103 Kbps
      Writing application : VirtualDubModRus 1.5.10.2 (build 2540/release)
      Writing library : VirtualDubMod build 2540/release
   Video #0
      ID : 0
      Format : MPEG-4 Visual
      Format profile : Advanced Simple@L5
      Format settings, BVOP : 1
      Format settings, QPel : No
      Format settings, GMC : No warppoints
      Format settings, Matrix : Default (H.263)
      Codec ID : XVID
      Codec ID/Hint : XviD
      Duration : 43mn 33s
      Bit rate : 1 901 Kbps
      Width : 720 pixels
      Height : 384 pixels
      Display aspect ratio : 1.85:1
      Frame rate : 25.000 fps
      Color space : YUV
      Chroma subsampling : 4:2:0
      Bit depth : 8 bits
      Scan type : Progressive
      Compression mode : Lossy
      Bits/(Pixel*Frame) : 0.275
      Stream size : 592 MiB (90%)
      Writing library : XviD 1.2.1 (UTC 2008-12-04)
   Audio #1
      ID : 1
      Format : MPEG Audio
      Format version : Version 1
      Format profile : Layer 3
      Codec ID : 55
      Codec ID/Hint : MP3
      Duration : 43mn 33s
      Bit rate mode : Constant
      Bit rate : 192 Kbps
      Channel(s) : 2 channels
      Sampling rate : 48.0 KHz
      Compression mode : Lossy
      Stream size : 59.8 MiB (9%)
      Alignment : Aligned on interleaves
      Interleave, duration : 40 ms (1.00 video frame)
      Interleave, preload duration : 504 ms
      Writing library : LAME3.98r
      Encoding settings : -m s -V 4 -q 2 -lowpass 18.6 -b 192
Семпл: http://multi-up.com/810411

picpicpicpicpicpicpicpicpicpicpicpicpicpicpicpic
Для увеличения картинки щелкните мышкой по превью
Сериал который был выложен и зарегистрирован более двух месяцев назад буду раздавать с 23.00ч до 06.00ч утра ( вина в этом немоя, а пользователей которые неподдерживают раздачу)

Этот торрент недоступен для скачивания без регистрации, однако доступен по публичной magnet-ссылке (источники с публичных трекеров). Перед использованием ссылки прочтите, пожалуйста Пользовательское соглашение, а также как можно дольше оставайтесь на раздаче! Для того, чтобы скачать сам торрент-файл (который видит больше источников), а также для того, чтобы поблагодарить релизера, вам необходимо зарегистрироваться. Если регистрироваться лень - вы можете также попробовать скачать релиз по нашим партнерским ссылкам ниже.

[underverse.su].t24156.torrent
Трекер: Зарегистрирован   [ 14.02.2013 02:21 ]  

Статус: проверено (by aleksndr at 14.02.2013 14:09)
Поблагодарили: 2 человека
Тип торрента: публичный - доступные источники с открытых трекеров: 
Размер: 19,82 GB (занимает 4,53 DVDR, для записи нужно 5 болванок DVDR/RW)
 
 


Последний раз редактировалось: nemos (06.11.2014 12:33), всего редактировалось 8 раз(а)

nemos Пол:Муж

05-Янв-2013 07:57

Торрент файл обновлен ,добавлены серии (10)

nemos Пол:Муж

10-Янв-2013 12:44

Торрент файл обновлен ,добавлены серии (16)

nemos Пол:Муж

11-Янв-2013 07:10

Торрент файл обновлен ,добавлены серии (19)

nemos Пол:Муж

19-Янв-2013 18:19

Торрент файл обновлен

Яндекс.Метрика powered by Sphinx


В Н И М А Н И Е
Сайт не распространяет и не хранит электронные версии произведений, а лишь бесплатно и без коммерческой выгоды (не требуя взамен платы,
SMS и т.д.) предоставляет доступ к создаваемому пользователями каталогу ссылок на торрент-файлы, которые содержат только списки хеш-сумм.
Убедительная просьба с жалобами обращаться напрямую к пользователю, разместившему торрент файл.

Вверх