Loading...
Error

Посредник / Грач / Серии: 1-12 (12) (Андрей Волгин, Максим Кондратенко) [2012, Детектив, мистика, SATRip]

Статистика раздачи
Размер:  8,64 GB   |    Зарегистрирован:  3 года 11 месяцев   |    Скачан:  25 раз

Полного источника не было: 2 года

Сидов:  0  |  0 KB/s  ]   Личеров:  0  |  0 KB/s  ]

* - сиды/пиры с внешних источников

   
 
Автор Сообщение

nemos Пол:Муж

30-Дек-2012 16:56



Год выпуска: 2012
Жанр: триллер, детектив
Страна: Россия
Режиссер: Андрей Волгин, Максим Кондратенко
В ролях: Павел Трубинер, Светлана Иванова, Игорь Старосельцев, Алексей Лонгин, Александр Баширов, Иван Охлобыстин, Вадим Демчог, Дмитрий МаринАнгелина Добророднова,
Главный герой телесериала — майор МВД Сергей Грачев, по прозвищу «Грач». Во время операции по освобождению заложника майор получает пулю в голову. Он чудом избегает смерти, несмотря на то, что врачи не смогли извлечь пулю.

Ранение полностью меняет жизнь Грача. Он пережил клиническую смерть, видел таинственный «тоннель», о котором рассказывают многие умирающие. И, самое главное, Грачу начали являться призраки — духи убитых людей, чьи убийцы до сих пор не найдены.

Отвечая на молчаливые просьбы умерших, используя их подсказки, Грач поднимает и расследует старые, безнадежные дела. Большинство знакомых и коллег считают майора сумасшедшим. Жена Грача оставляет попытки поправить не слишком удачную семейную жизнь и уходит.

Одновременно с расследованиями старых, давно забытых и «сложенных на полку» убийств Грач пытается понять природу своего странного дара, который помогает ему в раскрытии преступлений, а также наладить свою непростую личную жизнь. Шанс Грача на счастье — его подчиненная, капитан Даша Охлопкова, одна из немногих, кто верит в его дар.


Качество видео: SatRip

Продолжительность: 00:50:43серия
Формат: AVI
Видео: XviD, 720x384, 1 903 kbps
Аудио: русский, MP3 2.0, 192 kbps

Код:

F:\СКАЧКИ\С underverse\Posrednik.2012.XviD.SATRip.Files-x\Posrednik.(12.seriya).2012.XviD.SATRip.Files-x.avi
   General
      Complete name : F:\СКАЧКИ\С underverse\Posrednik.2012.XviD.SATRip.Files-x\Posrednik.(12.seriya).2012.XviD.SATRip.Files-x.avi
      Format : AVI
      Format/Info : Audio Video Interleave
      File size : 764 MiB
      Duration : 50mn 43s
      Overall bit rate : 2 105 Kbps
      Writing application : VirtualDubModRus 1.5.10.2 (build 2540/release)
      Writing library : VirtualDubMod build 2540/release
   Video #0
      ID : 0
      Format : MPEG-4 Visual
      Format profile : Advanced Simple@L5
      Format settings, BVOP : 1
      Format settings, QPel : No
      Format settings, GMC : No warppoints
      Format settings, Matrix : Default (H.263)
      Codec ID : XVID
      Codec ID/Hint : XviD
      Duration : 50mn 43s
      Bit rate : 1 903 Kbps
      Width : 720 pixels
      Height : 384 pixels
      Display aspect ratio : 1.85:1
      Frame rate : 25.000 fps
      Color space : YUV
      Chroma subsampling : 4:2:0
      Bit depth : 8 bits
      Scan type : Progressive
      Compression mode : Lossy
      Bits/(Pixel*Frame) : 0.275
      Stream size : 690 MiB (90%)
      Writing library : XviD 1.2.1 (UTC 2008-12-04)
   Audio #1
      ID : 1
      Format : MPEG Audio
      Format version : Version 1
      Format profile : Layer 3
      Codec ID : 55
      Codec ID/Hint : MP3
      Duration : 50mn 43s
      Bit rate mode : Constant
      Bit rate : 192 Kbps
      Channel(s) : 2 channels
      Sampling rate : 48.0 KHz
      Compression mode : Lossy
      Stream size : 69.6 MiB (9%)
      Alignment : Aligned on interleaves
      Interleave, duration : 40 ms (1.00 video frame)
      Interleave, preload duration : 504 ms
      Writing library : LAME3.98r
      Encoding settings : -m s -V 4 -q 2 -lowpass 18.6 -b 192
Семпл: http://multi-up.com/810399

picpicpicpicpicpicpicpicpicpicpicpic
Для увеличения картинки щелкните мышкой по превью

Этот торрент недоступен для скачивания без регистрации, однако доступен по публичной magnet-ссылке (источники с публичных трекеров). Перед использованием ссылки прочтите, пожалуйста Пользовательское соглашение, а также как можно дольше оставайтесь на раздаче! Для того, чтобы скачать сам торрент-файл (который видит больше источников), а также для того, чтобы поблагодарить релизера, вам необходимо зарегистрироваться. Если регистрироваться лень - вы можете также попробовать скачать релиз по нашим партнерским ссылкам ниже.

[underverse.su].t22924.torrent
Трекер: Зарегистрирован   [ 30.12.2012 16:56 ]  

Статус: проверено (by Garnett at 30.12.2012 19:26)
Поблагодарили: 2 человека
Тип торрента: публичный - доступные источники с открытых трекеров: 
Размер: 8,64 GB (занимает 1,97 DVDR, для записи нужно 2 болванки DVDR/RW)
 
 
Похожие темы
Форум Тема Автор Торрент Отв. Посл. сооб.
Зарубежное кино [DVDRip, Low-Res HDRip, и т.д.] Посредник / The go-between (Пит Трэвис) [2015 г., драма, WEBRip] VO + Original makkol
11 | 0

0 | 562

27

05.10.2015 22:07

xUSSR сериалы Посредник / Грач [01-12 из 12] (Андрей Волгин, Максим Кондратенко) [2012 г., триллер, детектив, HDTVRip-AVC] Чертёнок
2 | 0

0 | 1140

8

03.09.2013 15:33

xUSSR сериалы Посредник / Серии 01-04 из 04 (Игорь Москвитин) [2013 г., остросюжетный сериал, SATRip] Чертёнок
1 | 0

1 | 1305

44

30.09.2013 07:08


Яндекс.Метрика powered by Sphinx


В Н И М А Н И Е
Сайт не распространяет и не хранит электронные версии произведений, а лишь бесплатно и без коммерческой выгоды (не требуя взамен платы,
SMS и т.д.) предоставляет доступ к создаваемому пользователями каталогу ссылок на торрент-файлы, которые содержат только списки хеш-сумм.
Убедительная просьба с жалобами обращаться напрямую к пользователю, разместившему торрент файл.

Вверх