Loading...
Error

Снято! / Cut (Амир Надери) [2011 г., драма, DVDRip] MVO

Статистика раздачи
Размер:  2,05 GB   |    Зарегистрирован:  3 года 11 месяцев   |    Скачан:  2 раза

Полного источника не было: 2 года 7 месяцев

Сидов:  0  |  0 KB/s  ]   Личеров:  0  |  0 KB/s  ]

* - сиды/пиры с внешних источников

   
 
Автор Сообщение

Доктор Ватсон Пол:Муж

29-Дек-2012 18:26

Снято! / Cut


Год выпуска: 2011
Жанр: драма
Страна: Япония , Франция , США , Корея Южная , Турция
Режиссер: Амир Надери
В ролях: Хидэтоси Нисидзима, Такако Токива, Такаси Сасано, Сюн Сугата, Денден, Такудзи Судзуки, Икудзи Накамура, Сатоси Никайдо, Джуничи Хаякава, Хатсуо Ито
Сюжет фильма:
Сюдзи — молодой режиссер, не терпящий компромиссов и не вписывающийся в японское общество. Его брат-ростовщик, который помогал финансировать его фильмы, задолжал мафии, и якудза с ним разделались. Долговые обязательства ложатся на Сюдзи.

Чтобы расплатиться, он дает бандитам избивать себя за деньги. Во время избиений он выкрикивает названия великих фильмов и имена великих режиссеров.

  • Мировая премьера: 11 сентября 2011
  • Российская премьера: 8 ноября 2012, «Кино без границ»



Продолжительность: 01:55:43
Формат: AVI
Видео: XviD, 720x384 (1.875), 2078 kbps
Аудио: русский, многоголосый закадровый [профессиональный], AC3 5.1, 448 kbps

Код:

General
Complete name : F:\Snyato.2011.P_DVDRip.avi
Format : AVI
Format/Info : Audio Video Interleave
Format profile : OpenDML
File size : 2.05 GiB
Duration : 1h 55mn
Overall bit rate : 2 539 Kbps
Movie name : Snyato.2011.P.DVDRip
Writing application : VirtualDubModRus 1.5.10.2 (build 2542/release)
Original source form/Name : Movie

Video
ID : 0
Format : MPEG-4 Visual
Format profile : Advanced Simple@L5
Format settings, BVOP : 2
Format settings, QPel : No
Format settings, GMC : No warppoints
Format settings, Matrix : Custom
Codec ID : XVID
Codec ID/Hint : XviD
Duration : 1h 55mn
Bit rate : 2 078 Kbps
Width : 720 pixels
Height : 384 pixels
Display aspect ratio : 1.875
Frame rate : 25.000 fps
Color space : YUV
Chroma subsampling : 4:2:0
Bit depth : 8 bits
Scan type : Progressive
Compression mode : Lossy
Bits/(Pixel*Frame) : 0.301
Stream size : 1.68 GiB (82%)
Writing library : XviD 1.2.1 (UTC 2008-12-04)

Audio
ID : 1
Format : AC-3
Format/Info : Audio Coding 3
Mode extension : CM (complete main)
Codec ID : 2000
Duration : 1h 55mn
Bit rate mode : Constant
Bit rate : 448 Kbps
Channel(s) : 6 channels
Channel positions : Front: L C R, Side: L R, LFE
Sampling rate : 48.0 KHz
Bit depth : 16 bits
Compression mode : Lossy
Stream size : 371 MiB (18%)
Alignment : Split accross interleaves
Interleave, duration : 40 ms (1.00 video frame)
Interleave, preload duration : 500 ms
Семпл: http://multi-up.com/809110

picpicpicpic
Для увеличения картинки щелкните мышкой по превью

Этот торрент недоступен для скачивания без регистрации, однако доступен по публичной magnet-ссылке (источники с публичных трекеров). Перед использованием ссылки прочтите, пожалуйста Пользовательское соглашение, а также как можно дольше оставайтесь на раздаче! Для того, чтобы скачать сам торрент-файл (который видит больше источников), а также для того, чтобы поблагодарить релизера, вам необходимо зарегистрироваться. Если регистрироваться лень - вы можете также попробовать скачать релиз по нашим партнерским ссылкам ниже.

[underverse.su].t22907.torrent
Трекер: Зарегистрирован   [ 29.12.2012 18:26 ]  

Статус: проверено (by garry at 29.12.2012 18:42)
Поблагодарили: 1 человек
Тип торрента: публичный - доступные источники с открытых трекеров: 
Размер: 2,05 GB (занимает 0,47 DVDR, для записи нужно 1 болванка DVDR/RW)
 
 
Похожие темы
Форум Тема Автор Торрент Отв. Посл. сооб.
Зарубежное кино [DVDRip, Low-Res HDRip, и т.д.] Снято! / Cut! (Дэвид Раунтри / David Rountree) [2014 г., ужасы, триллер, DVDRip] VO (den904) + Original (Eng) 90ytr90
2 | 0

0 | 550

14

16.03.2015 17:11


Яндекс.Метрика powered by Sphinx


В Н И М А Н И Е
Сайт не распространяет и не хранит электронные версии произведений, а лишь бесплатно и без коммерческой выгоды (не требуя взамен платы,
SMS и т.д.) предоставляет доступ к создаваемому пользователями каталогу ссылок на торрент-файлы, которые содержат только списки хеш-сумм.
Убедительная просьба с жалобами обращаться напрямую к пользователю, разместившему торрент файл.

Вверх