Loading...
Error

Помогите стать отцом / Not Suitable for Children (Питер Темплмен) [2012, мелодрама, комедия, HDRip-AVC] Dub + Original Eng

Статистика раздачи
Размер:  2,18 GB   |    Зарегистрирован:  3 года 11 месяцев   |    Скачан:  7 раз

Полного источника не было: 3 года 3 месяца

Сидов:  0  |  0 KB/s  ]   Личеров:  0  |  0 KB/s  ]

* - сиды/пиры с внешних источников

   
 
Автор Сообщение

Garnett Пол:Муж

29-Дек-2012 10:54

Помогите стать отцом / Not Suitable for Children
Страна: Австралия
Жанр: мелодрама, комедия
Год выпуска: 2012
Продолжительность: 01:35:52
Перевод: Профессиональный (дублированный)
Cубтитры: нет
Оригинальная аудиодорожка: английский
Режиссер: Питер Темплмен / Peter Templeman
В ролях: Райан Квантен , Сара Снук , Райан Корр , Бояна Новакович , Сьюзэн Прайор , Льюис Фиц-Джералд , Кэтерин Бек , Белинда Бромилов , Зои Каридес , Элис Паркинсон , Лулу МакКлэтчи , Дэниэл Хеншэлл
Описание: Молодой плейбой узнает, что у него остался один месяц до того, как он станет бесплодным. И он решает как можно скорее зачать ребенка.
Сэмпл
Качество видео: HDRip-AVC / BDRip 1080p
Формат видео: MKV
Видео: AVC, 1024 x 436, 24.000 fps, 2356 Кбит/сек
Аудио: AC-3 at 448 Кбит/сек, 6 каналов, 48,0 КГц (RUS)
Аудио 2: AC-3 at 448 Кбит/сек, 6 каналов, 48,0 КГц (ENG)
Общее
Полное имя : Pomogite.stat.otcom.2012.HDRip.(AVC).mkv
Формат : Matroska
Версия формата : Version 4 / Version 2
Размер файла : 2,18 Гбайт
Продолжительность : 1 ч. 35 м.
Общий поток : 3253 Кбит/сек
Дата кодирования : UTC 2010-02-22 21:41:31
Программа кодирования : mkvmerge v5.9.0 ('On The Loose') built on Dec 9 2012 15:37:01
Библиотека кодирования : libebml v1.3.0 + libmatroska v1.4.0
Видео
Идентификатор : 1
Формат : AVC
Формат/Информация : Advanced Video Codec
Профиль формата : High@L4.1
Параметр CABAC формата : Да
Параметр ReFrames формата : 11 кадров
Идентификатор кодека : V_MPEG4/ISO/AVC
Продолжительность : 1 ч. 35 м.
Битрейт : 2356 Кбит/сек
Ширина : 1024 пикселя
Высота : 436 пикселей
Соотношение сторон : 2,35:1
Режим частоты кадров : Постоянный
Частота кадров : 24,000 кадра/сек
Цветовое пространство : YUV
Субдискретизация насыщенности : 4:2:0
Битовая глубина : 8 бит
Тип развёртки : Прогрессивная
Бит/(Пиксели*Кадры) : 0.220
Размер потока : 1,54 Гбайт (70%)
Библиотека кодирования : x264 core 129 r2230 1cffe9f
Настройки программы : cabac=1 / ref=11 / deblock=1:-2:-1 / analyse=0x3:0x133 / me=umh / subme=10 / psy=1 / psy_rd=1.10:0.05 / mixed_ref=1 / me_range=24 / chroma_me=1 / trellis=2 / 8x8dct=1 / cqm=0 / deadzone=21,11 / fast_pskip=0 / chroma_qp_offset=-3 / threads=12 / lookahead_threads=2 / sliced_threads=0 / nr=0 / decimate=1 / interlaced=0 / bluray_compat=0 / constrained_intra=0 / bframes=8 / b_pyramid=2 / b_adapt=2 / b_bias=0 / direct=3 / weightb=1 / open_gop=0 / weightp=2 / keyint=250 / keyint_min=23 / scenecut=40 / intra_refresh=0 / rc=2pass / mbtree=0 / bitrate=2356 / ratetol=1.0 / qcomp=0.60 / qpmin=0 / qpmax=69 / qpstep=4 / cplxblur=20.0 / qblur=0.5 / ip_ratio=1.40 / pb_ratio=1.30 / aq=1:0.80
Язык : English
Default : Да
Forced : Нет
Аудио #1
Идентификатор : 2
Формат : AC-3
Формат/Информация : Audio Coding 3
Расширение режима : CM (complete main)
Параметр Endianness формата : Big
Идентификатор кодека : A_AC3
Продолжительность : 1 ч. 35 м.
Вид битрейта : Постоянный
Битрейт : 448 Кбит/сек
Каналы : 6 каналов
Расположение каналов : Front: L C R, Side: L R, LFE
Частота : 48,0 КГц
Битовая глубина : 16 бит
Метод сжатия : С потерями
Размер потока : 307 Мбайт (14%)
Язык : Russian
Default : Да
Forced : Нет
Аудио #2
Идентификатор : 3
Формат : AC-3
Формат/Информация : Audio Coding 3
Расширение режима : CM (complete main)
Параметр Endianness формата : Big
Идентификатор кодека : A_AC3
Продолжительность : 1 ч. 35 м.
Вид битрейта : Постоянный
Битрейт : 448 Кбит/сек
Каналы : 6 каналов
Расположение каналов : Front: L C R, Side: L R, LFE
Частота : 48,0 КГц
Битовая глубина : 16 бит
Метод сжатия : С потерями
Размер потока : 307 Мбайт (14%)
Язык : English
Default : Нет
Forced : Нет
picpicpic

Этот торрент недоступен для скачивания без регистрации, однако доступен по публичной magnet-ссылке (источники с публичных трекеров). Перед использованием ссылки прочтите, пожалуйста Пользовательское соглашение, а также как можно дольше оставайтесь на раздаче! Для того, чтобы скачать сам торрент-файл (который видит больше источников), а также для того, чтобы поблагодарить релизера, вам необходимо зарегистрироваться. Если регистрироваться лень - вы можете также попробовать скачать релиз по нашим партнерским ссылкам ниже.

[underverse.su].t22879.torrent
Трекер: Зарегистрирован   [ 29.12.2012 10:54 ]  

Статус: проверено (by garry at 29.12.2012 13:06)
Поблагодарили: пока никто не поблагодарил...
Тип торрента: публичный - доступные источники с открытых трекеров: 
Размер: 2,18 GB (занимает 1/2 DVDR, для записи нужно 1 болванка DVDR/RW)
 
 
Похожие темы
Форум Тема Автор Торрент Отв. Посл. сооб.
Зарубежное кино [DVDRip, Low-Res HDRip, и т.д.] Помогите стать отцом / Not Suitable for Children (Питер Темплмен) [2012 г., мелодрама, комедия, HDRip] Dub 90ytr90
208 | 4

0 | 244

5

09.12.2012 08:41

Зарубежное кино [DVDRip, Low-Res HDRip, и т.д.] Помогите стать отцом / Not Suitable for Children (Питер Темплмен) [2012 г., мелодрама, комедия, HDRip] Dub 90ytr90
147 | 4

0 | 436

28

27.12.2012 20:07


Яндекс.Метрика powered by Sphinx


В Н И М А Н И Е
Сайт не распространяет и не хранит электронные версии произведений, а лишь бесплатно и без коммерческой выгоды (не требуя взамен платы,
SMS и т.д.) предоставляет доступ к создаваемому пользователями каталогу ссылок на торрент-файлы, которые содержат только списки хеш-сумм.
Убедительная просьба с жалобами обращаться напрямую к пользователю, разместившему торрент файл.

Вверх