Loading...
Error

Прощай, моя королева / Les adieux a la reine (Бенуа Жако) [2012, драма, история, BDRip] MVO (R5)

Статистика раздачи
Размер:  746 MB   |    Зарегистрирован:  3 года 11 месяцев   |    Скачан:  3 раза

Полного источника не было: 2 года 7 месяцев

Сидов:  0  |  0 KB/s  ]   Личеров:  0  |  0 KB/s  ]

* - сиды/пиры с внешних источников

   
 
Автор Сообщение

Garnett Пол:Муж

29-Дек-2012 10:44

Прощай, моя королева / Les adieux а la reine
Год выпуска: 2012
Страна: Франция, Испания
Жанр: драма, история
Продолжительность: 01:35:23
Перевод: Профессиональный (многоголосый закадровый) R5
Субтитры: нет
Режиссёр: Бенуа Жако / Benoit Jacquot
В ролях: Дайан Крюгер (La reine Marie Antoinette), Леа Сейду (Agathe-Sidonie Laborde), Виржини Ледуайен (La duchesse Gabrielle de Polignac), Ксавье Бовуа (Le roi Louis XVI), Ноэми Львовски (Henriette Genest dite Madame Campan), Мишель Робен (Jacob-Nicolas Moreau - l'archiviste de Versailles), Жюли-Мари Парментье (La servante Honorine Aubert), Лолита Шамма (La domestique Louison), Владимир Консиньи (Renй dit Paolo), Доминик Реймон (Madame de Rochereuil), Анн Бенуа (Rose Bertin), Херв Пьер (L'abbй Hйrissй)
Описание: 14 июля 1789 года толпы восставших взяли Бастилию, но блестящий Версаль еще пытался отстоять свое королевское великолепие на пути урагана...
Экранизация одноименного романа Шанталь Тома, написанного в форме воспоминаний Сидони Лаборде - придворной чтицы Марии-Антуанетты о 14, 15 и 16 июля 1789 года. О тех днях, когда была разрушена Бастилия и учреждена Национальная гвардия, когда началась кровавая революция и залы роскошного дворца опустели, когда свита и слуги оставили свою Королеву. Спустя 21 год, уже в Вене Агата Сидони Лаборде оглядывается назад и вспоминает...
Качество видео: BDRip[/b]
Формат: AVI
Видео: XviD, 672x288 (2.35:1), 25 fps, ~955 kbps, 0.198 bpp
Аудио: Русский: MP3, 2 ch, 48 kHz, ~128 kbps
  • Первоначально на роль Марии-Антуанетты была утверждена Ева Грин, но затем заменена на Дайан Крюгер.
  • Основой для фильма послужила вышедшая в 2002 году одноимённая книга французской писательницы Шанталь Тома.
General
Complete name : Proschay.moya.koroleva.2012.BDRip.XviD.745MB.avi
Format : AVI
Format/Info : Audio Video Interleave
File size : 746 MiB
Duration : 1h 35mn
Overall bit rate : 1 093 Kbps
Writing application : VirtualDubMod 1.5.10.3 | www.virtualdub-fr.org || (build 2550/release)
Writing library : VirtualDubMod build 2550/release
Video
ID : 0
Format : MPEG-4 Visual
Format profile : Advanced Simple@L5
Format settings, BVOP : 2
Format settings, QPel : No
Format settings, GMC : No warppoints
Format settings, Matrix : Custom
Codec ID : XVID
Codec ID/Hint : XviD
Duration : 1h 35mn
Bit rate : 956 Kbps
Width : 672 pixels
Height : 288 pixels
Display aspect ratio : 2.35:1
Frame rate : 25.000 fps
Color space : YUV
Chroma subsampling : 4:2:0
Bit depth : 8 bits
Scan type : Progressive
Compression mode : Lossy
Bits/(Pixel*Frame) : 0.198
Stream size : 652 MiB (87%)
Writing library : XviD 65
Audio
ID : 1
Format : MPEG Audio
Format version : Version 1
Format profile : Layer 3
Mode : Joint stereo
Mode extension : MS Stereo
Codec ID : 55
Codec ID/Hint : MP3
Duration : 1h 35mn
Bit rate mode : Constant
Bit rate : 128 Kbps
Channel(s) : 2 channels
Sampling rate : 48.0 KHz
Compression mode : Lossy
Stream size : 87.3 MiB (12%)
Alignment : Aligned on interleaves
Interleave, duration : 40 ms (1.00 video frame)
Interleave, preload duration : 504 ms
Writing library : LAME3.99r
Encoding settings : -m j -V 4 -q 0 -lowpass 17 -b 128

picpicpic

Этот торрент недоступен для скачивания без регистрации, однако доступен по публичной magnet-ссылке (источники с публичных трекеров). Перед использованием ссылки прочтите, пожалуйста Пользовательское соглашение, а также как можно дольше оставайтесь на раздаче! Для того, чтобы скачать сам торрент-файл (который видит больше источников), а также для того, чтобы поблагодарить релизера, вам необходимо зарегистрироваться. Если регистрироваться лень - вы можете также попробовать скачать релиз по нашим партнерским ссылкам ниже.

[underverse.su].t22877.torrent
Трекер: Зарегистрирован   [ 29.12.2012 10:44 ]  

Статус: проверено (by garry at 29.12.2012 17:47)
Поблагодарили: пока никто не поблагодарил...
Тип торрента: публичный - доступные источники с открытых трекеров: 
Размер: 746 MB (занимает 0,17 DVDR, для записи нужно 1 болванка DVDR/RW)
 
 
Похожие темы
Форум Тема Автор Торрент Отв. Посл. сооб.
Зарубежное кино [DVDRip, Low-Res HDRip, и т.д.] Прощай, моя королева / Les adieux a la reine (Бенуа Жако) [2012 г., драма, история, HDRip] MVO [лицензия] 90ytr90
10 | 0

0 | 5829

38

04.10.2012 14:43


Яндекс.Метрика powered by Sphinx


В Н И М А Н И Е
Сайт не распространяет и не хранит электронные версии произведений, а лишь бесплатно и без коммерческой выгоды (не требуя взамен платы,
SMS и т.д.) предоставляет доступ к создаваемому пользователями каталогу ссылок на торрент-файлы, которые содержат только списки хеш-сумм.
Убедительная просьба с жалобами обращаться напрямую к пользователю, разместившему торрент файл.

Вверх