Loading...
Error

Биг тайм раш / Big Time Movie (Сэвидж Стив Холланд) [2012, комедия, HDRip] Dub + Orig

Статистика раздачи
Размер:  1,37 GB   |    Зарегистрирован:  3 года 11 месяцев   |    Скачан:  16 раз

Полного источника не было: 6 месяцев

Сидов:  0  |  0 KB/s  ]   Личеров:  0  |  0 KB/s  ]

* - сиды/пиры с внешних источников

   
 
Автор Сообщение

Garnett Пол:Муж

29-Дек-2012 10:30

Биг тайм раш / Big Time Movie

Страна: США
Жанр: комедия
Год выпуска: 2012
Продолжительность: 01:07:51
Перевод: Профессиональный (полное дублирование)
Оригинальная аудио дорожка: английский
Субтитры: нет
Режиссер: Сэвидж Стив Холланд / Savage Steve Holland
В ролях: Кендалл Шмидт , Джеймс Маслоу , Логан Хендерсон , Карлос Пена , Эрин Сандерс , Кьяра Браво , Эмма Лахана , Эмили Холмс , Кейтлин Тервер , Чаллен Кэйтс , Таня Чисхолм , Мелисса Роксбур
Описание: Ребята из «Биг Тайм Раш» едут на гастроли в Лондон - в рамках своего первого мирового турне - и неожиданно становятся героями самого настоящего шпионского триллера. В аэропорту их багаж перепутали, и в руках у молодых музыкантов оказалось устройство, способное уничтожить весь мир. За ребятами теперь охотятся маньяки-злодеи, агенты федеральных служб, шведские шпионы и владелец секретного устройства, бизнесмен-миллиардер. Ребятам предстоит спасти мир и при этом не опоздать на свой собственный концерт...
Качество: HDRip (Исходник неизвестен)
Контейнер: AVI
Видео: XviD, 720x400 (16:9), 2103 kbps, 23,976 fps, 0,305 bpp
Аудио №1: Russian: AC3 / 2.0 / 48 kHz / 384 kbps / 16 bit
Аудио №2: English: AC3 / 5.1 / 48 kHz / 384 kbps / 16 bit
General
Complete name : F:\Big.time.pash.2012.D.HDRip.1400.avi
Format : AVI
Format/Info : Audio Video Interleave
File size : 1.37 GiB
Duration : 1h 7mn
Overall bit rate : 2 886 Kbps
Writing application : VirtualDubMod 1.5.10.2 (build 2540/release)
Writing library : VirtualDubMod build 2540/release
Video
ID : 0
Format : MPEG-4 Visual
Format profile : Advanced Simple@L5
Format settings, BVOP : 2
Format settings, QPel : No
Format settings, GMC : No warppoints
Format settings, Matrix : Default (MPEG)
Codec ID : XVID
Codec ID/Hint : XviD
Duration : 1h 7mn
Bit rate : 2 104 Kbps
Width : 720 pixels
Height : 400 pixels
Display aspect ratio : 16:9
Frame rate : 23.976 fps
Color space : YUV
Chroma subsampling : 4:2:0
Bit depth : 8 bits
Scan type : Progressive
Compression mode : Lossy
Bits/(Pixel*Frame) : 0.305
Stream size : 1 021 MiB (73%)
Writing library : XviD 1.2.1 (UTC 2008-12-04)
Audio #1
ID : 1
Format : AC-3
Format/Info : Audio Coding 3
Mode extension : CM (complete main)
Codec ID : 2000
Duration : 1h 7mn
Bit rate mode : Constant
Bit rate : 384 Kbps
Channel(s) : 2 channels
Channel positions : Front: L R
Sampling rate : 48.0 KHz
Bit depth : 16 bits
Compression mode : Lossy
Stream size : 186 MiB (13%)
Alignment : Split accross interleaves
Interleave, duration : 42 ms (1.00 video frame)
Interleave, preload duration : 500 ms
Audio #2
ID : 2
Format : AC-3
Format/Info : Audio Coding 3
Mode extension : CM (complete main)
Codec ID : 2000
Duration : 1h 7mn
Bit rate mode : Constant
Bit rate : 384 Kbps
Channel(s) : 6 channels
Channel positions : Front: L C R, Side: L R, LFE
Sampling rate : 48.0 KHz
Bit depth : 16 bits
Compression mode : Lossy
Stream size : 186 MiB (13%)
Alignment : Split accross interleaves
Interleave, duration : 42 ms (1.00 video frame)
Interleave, preload duration : 500 ms
pic]picpic

Этот торрент недоступен для скачивания без регистрации, однако доступен по публичной magnet-ссылке (источники с публичных трекеров). Перед использованием ссылки прочтите, пожалуйста Пользовательское соглашение, а также как можно дольше оставайтесь на раздаче! Для того, чтобы скачать сам торрент-файл (который видит больше источников), а также для того, чтобы поблагодарить релизера, вам необходимо зарегистрироваться. Если регистрироваться лень - вы можете также попробовать скачать релиз по нашим партнерским ссылкам ниже.

[underverse.su].t22873.torrent
Трекер: Зарегистрирован   [ 29.12.2012 10:30 ]  

Статус: проверено (by garry at 29.12.2012 17:38)
Поблагодарили: пока никто не поблагодарил...
Тип торрента: публичный - доступные источники с открытых трекеров: 
Размер: 1,37 GB (занимает 0,31 DVDR, для записи нужно 1 болванка DVDR/RW)
 
 

Madiar Пол:Муж

29-Дек-2012 11:03

Уже какая раздача у вас, и нету рейтинга "Кинопоиск'а и IMDb! "

Яндекс.Метрика powered by Sphinx


В Н И М А Н И Е
Сайт не распространяет и не хранит электронные версии произведений, а лишь бесплатно и без коммерческой выгоды (не требуя взамен платы,
SMS и т.д.) предоставляет доступ к создаваемому пользователями каталогу ссылок на торрент-файлы, которые содержат только списки хеш-сумм.
Убедительная просьба с жалобами обращаться напрямую к пользователю, разместившему торрент файл.

Вверх