Loading...
Error

Бригада: Наследник (Денис Алексеев) [2012 г., боевик, криминал, BDRip] HQ Underverse

Статистика раздачи
Размер:  1,45 GB   |    Зарегистрирован:  3 года 11 месяцев   |    Скачан:  51 раз

Полного источника не было: 11 часов

Сидов:  0  |  0 KB/s  ]   Личеров:  0  |  0 KB/s  ]

* - сиды/пиры с внешних источников

   
 
Автор Сообщение

HQ Underverse 

28-Дек-2012 23:19

Бригада: Наследник


Год выпуска: 2012
Жанр: боевик, криминал
Страна: Россия
Режиссер: Денис Алексеев
В ролях: Иван Макаревич, Екатерина Гусева, Кирилл Нагиев, Владислав Демин, Александр Иншаков, Анна Попова, Валерий Золотухин, Игорь Жижикин, Юрий Чурсин, Наталия Гуслистая
Сюжет фильма:
Фильм является идейным продолжением жизни героев телесериала «Бригада». Однако акцент смещен в историю сына Александра Белова — Ивана. Это Кино о современной России. О том, что у всех на устах: политике, коррупции, цинизме крупного бизнеса и спецслужб. О новом поколении, которое, узнав правду о нечистом бизнесе родителей, не идет по их стопам, а выбирает новый путь. Для них дороги понятия чести, любви и Родины. Герой, комфортно живший за границей, тем не менее, выбирает Россию (в отличие от сериала) и остается жить в ней, надеясь привнести эти идеалы в жизнь своих близких и страны в целом.

  • Мировая премьера: 29 ноября 2012
  • Российская премьера: 29 ноября 2012, «Каропрокат»


Качество видео: BDRip [Бригада: Наследник (2012) Blu-ray 1080p AVC DTS-HD 5.1 / HD Club]

Продолжительность: 01:46:11
Формат: avi
Видео: XviD, 720x304, 1564 kbps
Аудио: русский, оригинал, AC3 5.1, 384 kbps

Код:

General
Complete name                    : D:\Video\Movies\Releases\Brigada.Naslednik.2012.BDRip.XviD.AC3.Rus.O.HQ.Underverse.avi
Format                           : AVI
Format/Info                      : Audio Video Interleave
File size                        : 1.45 GiB
Duration                         : 1h 46mn
Overall bit rate                 : 1 958 Kbps
Writing application              : VirtualDubMod 1.5.10.2 (build 2540/release)
Writing library                  : VirtualDubMod build 2540/release

Video
ID                               : 0
Format                           : MPEG-4 Visual
Format profile                   : Streaming Video@L1
Format settings, BVOP            : Yes
Format settings, QPel            : No
Format settings, GMC             : No warppoints
Format settings, Matrix          : Custom
Muxing mode                      : Packed bitstream
Codec ID                         : XVID
Codec ID/Hint                    : XviD
Duration                         : 1h 46mn
Bit rate                         : 1 565 Kbps
Width                            : 720 pixels
Height                           : 304 pixels
Display aspect ratio             : 2.35
Frame rate                       : 24.000 fps
Resolution                       : 24 bits
Colorimetry                      : 4:2:0
Scan type                        : Progressive
Bits/(Pixel*Frame)               : 0.298
Stream size                      : 1.16 GiB (80%)
Writing library                  : XviD 64

Audio
ID                               : 1
Format                           : AC-3
Format/Info                      : Audio Coding 3
Codec ID                         : 2000
Duration                         : 1h 46mn
Bit rate mode                    : Constant
Bit rate                         : 384 Kbps
Channel(s)                       : 6 channels
Channel positions                : Front: L C R, Surround: L R, LFE
Sampling rate                    : 48.0 KHz
Stream size                      : 292 MiB (20%)
Alignment                        : Split accross interleaves
Interleave, duration             : 42 ms (1.00 video frame)
Interleave, preload duration     : 500 ms
Title                            : Brigada.Naslednik.2012.AC3.5.1.Rus.O.384.kbps.HQ.Underverse.ac3

Семпл: http://multi-up.com/809633

Релиз группы:

picpicpic
Для увеличения картинки щелкните мышкой по превью

Этот торрент недоступен для скачивания без регистрации, однако доступен по публичной magnet-ссылке (источники с публичных трекеров). Перед использованием ссылки прочтите, пожалуйста Пользовательское соглашение, а также как можно дольше оставайтесь на раздаче! Для того, чтобы скачать сам торрент-файл (который видит больше источников), а также для того, чтобы поблагодарить релизера, вам необходимо зарегистрироваться. Если регистрироваться лень - вы можете также попробовать скачать релиз по нашим партнерским ссылкам ниже.

[underverse.su].t22866.torrent
Трекер: Зарегистрирован   [ 28.12.2012 23:19 ]  

Статус: проверено (by garry at 28.12.2012 23:53)
Поблагодарили: 2 человека
Тип торрента: публичный - доступные источники с открытых трекеров: 
Размер: 1,45 GB (занимает 1/3 DVDR, для записи нужно 1 болванка DVDR/RW)
 
 
Похожие темы
Форум Тема Автор Торрент Отв. Посл. сооб.
Наше кино [DVDRip, Low-Res HDRip, и т.д.] Бригада: Наследник (Денис Алексеев) [2012 г., боевик, криминал, HDRip] 90ytr90
14 | 1

0 | 1154

10

28.12.2012 16:16

Наше кино [DVD / HDDVD / BD / Remux] Бригада: Наследник (Денис Алексеев) [2012 г., боевик, криминал, DVD-5] R5 dmax90
3 | 0

0 | 681

35

13.12.2012 03:35

Наше кино [DVD / HDDVD / BD / Remux] Бригада: Наследник (Денис Алексеев) [2012, Россия, боевик, криминал, Blu-ray Disc 1080p] uzi2009
1 | 0

0 | 514

3

22.04.2014 14:24


Яндекс.Метрика powered by Sphinx


В Н И М А Н И Е
Сайт не распространяет и не хранит электронные версии произведений, а лишь бесплатно и без коммерческой выгоды (не требуя взамен платы,
SMS и т.д.) предоставляет доступ к создаваемому пользователями каталогу ссылок на торрент-файлы, которые содержат только списки хеш-сумм.
Убедительная просьба с жалобами обращаться напрямую к пользователю, разместившему торрент файл.

Вверх