Loading...
Error

Псих 9 / Psych: 9 (Andrew Shortell) [2010 г., ужасы, триллер, детектив, HDRip] DVO

Статистика раздачи
Размер:  1,46 GB   |    Зарегистрирован:  3 года 11 месяцев   |    Скачан:  2 раза

Полного источника не было: 3 года 10 месяцев

Сидов:  0  |  0 KB/s  ]   Личеров:  0  |  0 KB/s  ]

* - сиды/пиры с внешних источников

   
 
Автор Сообщение

garry Пол:Муж

28-Дек-2012 20:44

Псих 9 / Psych: 9


Год выпуска: 2010
Жанр: ужасы, триллер, детектив
Страна: США , Великобритания , Чехия
Режиссер: Andrew Shortell
В ролях: Кэри Элвис, Сара Фостер, Майкл Бин, Коллин Кэмп, Гэбриел Манн, Винтер Эйв Золи, Сьюзи Эми, Кэтерин Шанклин, Райан Джеймс, Брайан Каспе
Сюжет фильма:
Молодая героиня, с несчастным прошлым, устраивается на работу в недавно закрытую больницу, чтобы привести в порядок перепутанную документацию дела пациентов. Работая в одиночку, после наступления темноты, она начинает подозревать, что больница имеет причастность к множеству убийств, совершенных за последнее время в округе…

  • Мировая премьера: 7 мая 2010


Качество видео: HDRip

Продолжительность: 01:38:01
Формат: AVI
Видео: XviD, 720x304, 1736 kbps
Аудио: русский, двухголосый закадровый [профессиональный], AC3 5.1, 384 kbps

Код:

Общее
 Полное имя : Psih.9.2010.P2.HDRip.avi
 Формат : AVI
 Формат/Информация : Audio Video Interleave
 Размер файла : 1,46 Гбайт
 Продолжительность : 1 ч. 38 м.
 Общий поток : 2129 Кбит/сек
 Программа кодирования : VirtualDubMod 1.5.10.3 (build 2550/release)
 Библиотека кодирования : VirtualDubMod build 2550/release

Видео
 Идентификатор : 0
 Формат : MPEG-4 Visual
 Профиль формата : Advanced Simple@L5
 Параметр BVOP формата : Да
 Параметр QPel формата : Нет
 Параметр GMC формата : Без точки перехода
 Параметр матрицы формата : Выборочная
 Идентификатор кодека : XVID
 Идентификатор кодека/Подсказка : XviD
 Продолжительность : 1 ч. 38 м.
 Битрейт : 1736 Кбит/сек
 Ширина : 720 пикс.
 Высота : 304 пикс.
 Соотношение сторон : 2,35:1
 Частота кадров : 23,976 кадр/сек
 Цветовое пространство : YUV
 Подвыборка цветности : 4:2:0
 Битовая глубина : 8 бит
 Тип развёртки : Прогрессивная
 Метод сжатия : С потерями
 Бит/(Пиксели*Кадры) : 0.331
 Размер потока : 1,19 Гбайт (82%)
 Библиотека кодирования : XviD 1.2.1 (UTC 2008-12-04)

Аудио
 Идентификатор : 1
 Формат : AC-3
 Формат/Информация : Audio Coding 3
 Расширение режима : CM (complete main)
 Идентификатор кодека : 2000
 Продолжительность : 1 ч. 38 м.
 Вид битрейта : Постоянный
 Битрейт : 384 Кбит/сек
 Канал(ы) : 6 канала(ов)
 Расположение каналов : Front: L C R, Side: L R, LFE
 Частота : 48,0 КГц
 Битовая глубина : 16 бит
 Метод сжатия : С потерями
 Размер потока : 269 Мбайт (18%)
 Выравнивание : Разделение по промежуткам
 Продолжительность промежутка : 42 мс. (1,00 видеокадр)
 Время предзагрузки промежутка : 500 ms
Автор рипа: avproh

picpicpic
Для увеличения картинки щелкните мышкой по превью

Этот торрент недоступен для скачивания без регистрации, однако доступен по публичной magnet-ссылке (источники с публичных трекеров). Перед использованием ссылки прочтите, пожалуйста Пользовательское соглашение, а также как можно дольше оставайтесь на раздаче! Для того, чтобы скачать сам торрент-файл (который видит больше источников), а также для того, чтобы поблагодарить релизера, вам необходимо зарегистрироваться. Если регистрироваться лень - вы можете также попробовать скачать релиз по нашим партнерским ссылкам ниже.

[underverse.su].t22863.torrent
Трекер: Зарегистрирован   [ 28.12.2012 20:44 ]  

Статус: проверено (by garry at 28.12.2012 20:45)
Поблагодарили: пока никто не поблагодарил...
Тип торрента: публичный - доступные источники с открытых трекеров: 
Размер: 1,46 GB (занимает 1/3 DVDR, для записи нужно 1 болванка DVDR/RW)
 
 

Яндекс.Метрика powered by Sphinx


В Н И М А Н И Е
Сайт не распространяет и не хранит электронные версии произведений, а лишь бесплатно и без коммерческой выгоды (не требуя взамен платы,
SMS и т.д.) предоставляет доступ к создаваемому пользователями каталогу ссылок на торрент-файлы, которые содержат только списки хеш-сумм.
Убедительная просьба с жалобами обращаться напрямую к пользователю, разместившему торрент файл.

Вверх