Loading...
Error

Филадельфийский эксперимент / The Philadelphia Experiment (Пол Зиллер) [2012, фантастика, триллер, детектив, HDRip] VO

Статистика раздачи
Размер:  700 MB   |    Зарегистрирован:  4 года 6 месяцев   |    Скачан:  70 раз

Полного источника не было: 10 месяцев

Сидов:  0  |  0 KB/s  ]   Личеров:  0  |  0 KB/s  ]

* - сиды/пиры с внешних источников

   
 
Автор Сообщение

Garnett Пол:Муж

28-Дек-2012 18:59

Филадельфийский эксперимент / The Philadelphia Experiment
Страна: Канада
Жанр: фантастика, триллер, детектив
Год выпуска: 2012
Продолжительность: 01:28:53
Перевод: Одноголосый закадровый [О. Иванов]
Режиссер: Пол Зиллер / Paul Ziller
В ролях: Николас Лиа , Райан Роббинс , Джина Холден , Лауро Чартрэнд , Эллисон Хоссак , Dmytro Kolesnyk , Чад Кровчук , Том МакБет , Малкольм МакДауэлл , Майкл Паре , Марк Поусон , Джон Рирдон
Описание: Целью секретного правительственного исследования является создание оборудования по повторению, так называемого, «Филадельфийского эксперимента» Второй мировой войны, который позволял делать невидимыми военные корабли. Успешно проведенный в наши дни эксперимент возвращает ранее исчезнувший в 1943г. эсминец «Элдридж». Но он приносит в 21 век только смерть и разрушения. Единственный оставшийся в живых после первого эксперимента Леа и его внучка, пытаются остановить это безумие.
Качество: HDRip (Исходник BDRip 720p)
Контейнер: AVI
Видео: XviD, 672x384 (16:9), 964 kbps, 23,976 fps, 0,156 bpp
Аудио: MP3 / 2.0 / 48 kHz / 128 kbps /
General
Complete name : F:\The.Philadelphia.Experiment.2012.HDRip.700.avi
Format : AVI
Format/Info : Audio Video Interleave
File size : 700 MiB
Duration : 1h 28mn
Overall bit rate : 1 101 Kbps
Writing application : VirtualDubMod 1.5.10.2 (build 2540/release)
Writing library : VirtualDubMod build 2540/release
Video
ID : 0
Format : MPEG-4 Visual
Format profile : Advanced Simple@L5
Format settings, BVOP : 4
Format settings, QPel : No
Format settings, GMC : No warppoints
Format settings, Matrix : Custom
Codec ID : XVID
Codec ID/Hint : XviD
Duration : 1h 28mn
Bit rate : 964 Kbps
Width : 672 pixels
Height : 384 pixels
Display aspect ratio : 16:9
Frame rate : 23.976 fps
Color space : YUV
Chroma subsampling : 4:2:0
Bit depth : 8 bits
Scan type : Progressive
Compression mode : Lossy
Bits/(Pixel*Frame) : 0.156
Stream size : 613 MiB (88%)
Writing library : XviD 1.2.1 (UTC 2008-12-04)
Audio
ID : 1
Format : MPEG Audio
Format version : Version 1
Format profile : Layer 3
Mode : Joint stereo
Mode extension : MS Stereo
Codec ID : 55
Codec ID/Hint : MP3
Duration : 1h 28mn
Bit rate mode : Constant
Bit rate : 128 Kbps
Channel(s) : 2 channels
Sampling rate : 48.0 KHz
Compression mode : Lossy
Stream size : 81.4 MiB (12%)
Alignment : Aligned on interleaves
Interleave, duration : 42 ms (1.00 video frame)
Interleave, preload duration : 504 ms
picpicpic

Этот торрент недоступен для скачивания без регистрации, однако доступен по публичной magnet-ссылке (источники с публичных трекеров). Перед использованием ссылки прочтите, пожалуйста Пользовательское соглашение, а также как можно дольше оставайтесь на раздаче! Для того, чтобы скачать сам торрент-файл (который видит больше источников), а также для того, чтобы поблагодарить релизера, вам необходимо зарегистрироваться. Если регистрироваться лень - вы можете также попробовать скачать релиз по нашим партнерским ссылкам ниже.

[underverse.su].t22859.torrent
Трекер: Зарегистрирован   [ 28.12.2012 18:59 ]  

Статус: проверено (by garry at 03.01.2013 14:58)
Поблагодарили: 7 человек
Тип торрента: публичный - доступные источники с открытых трекеров: 
Размер: 700 MB (занимает 0,16 DVDR, для записи нужно 1 болванка DVDR/RW)
 
 
Похожие темы
Форум Тема Автор Торрент Отв. Посл. сооб.
Зарубежное кино [DVDRip, Low-Res HDRip, и т.д.] Филадельфийский эксперимент / The Philadelphia Experiment (Пол Зиллер) [2012 г., фантастика, триллер, детектив, HDRip] VO (О. Иванов) 90ytr90
1 | 0

0 | 1653

92

26.12.2012 11:58

Зарубежное кино [DVDRip, Low-Res HDRip, и т.д.] Филадельфия / Philadelphia (Джонатан Демме / Jonathan Demme) [1993 г., драма, BDRip] Dub RG NewCinema
0 | 0

0 | 728

6

01.06.2013 08:04

Зарубежное кино [DVD / HDDVD / BD / Remux] Филадельфийский эксперимент / The Philadelphia Experiment (Стюарт Рэффил) [1984 г., Фантастика, Триллер, Драма, Blu-Ray Remux 1080p] 2-MVO (RUS, R5, Варус-Видео) + Dub (RUS, Советский дубляж) + AVO... Ведьмочка
1 | 0

0 | 701

4

11.08.2014 00:04

Зарубежное кино [HDDVDRip / BDRip / WEB-DL / HDTV 1080/720р] Филадельфийский эксперимент / The Philadelphia Experiment (Стюарт Рэффил) [1984 г., Фантастика, Триллер, Драма, BDRip 720p] 2-MVO (RUS, R5, Варус-Видео) + Dub (RUS, Советский дубляж) + AVO (RUS, А.... Ведьмочка
1 | 0

0 | 692

10

11.08.2014 00:15


Яндекс.Метрика powered by Sphinx


В Н И М А Н И Е
Сайт не распространяет и не хранит электронные версии произведений, а лишь бесплатно и без коммерческой выгоды (не требуя взамен платы,
SMS и т.д.) предоставляет доступ к создаваемому пользователями каталогу ссылок на торрент-файлы, которые содержат только списки хеш-сумм.
Убедительная просьба с жалобами обращаться напрямую к пользователю, разместившему торрент файл.

Вверх