Loading...
Error

Три мушкетера. Микки, Дональд, Гуфи / Mickey, Donald, Goofy: The Three Musketeers (Донован Кук) [2004 г., мультфильм, комедия, приключения, семейный, WEBDLRip] Dub

Статистика раздачи
Размер:  748 MB   |    Зарегистрирован:  4 года 7 месяцев   |    Скачан:  24 раза

Полного источника не было: 3 года 8 месяцев

Сидов:  0  |  0 KB/s  ]   Личеров:  0  |  0 KB/s  ]

* - сиды/пиры с внешних источников

   
 
Автор Сообщение

Доктор Ватсон Пол:Муж

27-Дек-2012 16:59

Три мушкетера. Микки, Дональд, Гуфи / Mickey, Donald, Goofy: The Three Musketeers


Год выпуска: 2004
Жанр: мультфильм, комедия, приключения, семейный
Страна: США
Режиссер: Донован Кук
Роли озвучивали: Уэйн Оллвэйн, Тони Ансельмо, Билл Фармер, Расси Тейлор, Тресс МакНилл, Джим Каммингс, Эйприл Уинчелл, Джефф Беннетт, Морис ЛаМарш, Роб Полсен
Сюжет фильма:
Заветная мечта трех лучших друзей Микки, Дональда и Гуфи — стать мушкетерами. Их размеренная жизнь перевернулась вверх дном, когда ребята оказались вовлеченными в коварный заговор капитана королевских мушкетеров Пита и лейтенанта Кларабелля, которые решили избавиться от принцессы Минни — единственного препятствия на пути Пита к королевскому трону.

Возможно, Микки, Дональд и Гуфи и не выглядят героями, но они припасли пару сюрпризов для капитана Пита. Дружба и сплоченность — вот их главный козырь!

Качество видео: WEBDLRip

Продолжительность: 01:08:17
Формат: AVI
Видео: XviD, 720x400(1.85:1), 1141 kbps
Аудио: русский, дублированный, AC3 5.1, 384 kbps

Код:

General
Complete name                            : D:\ФИЛЬМЫ\Mickey.Donald.Goofy.The.Three.Musketeers.2004.WEB-DLRip.andre90.avi
Format                                   : AVI
Format/Info                              : Audio Video Interleave
File size                                : 748 MiB
Duration                                 : 1h 8mn
Overall bit rate                         : 1 531 Kbps
Writing application                      : VirtualDubMod 1.5.10.2 (build 2540/release)
Writing library                          : VirtualDubMod build 2540/release

Video
ID                                       : 0
Format                                   : MPEG-4 Visual
Format profile                           : Advanced Simple@L5
Format settings, BVOP                    : 1
Format settings, QPel                    : No
Format settings, GMC                     : No warppoints
Format settings, Matrix                  : Custom
Codec ID                                 : XVID
Codec ID/Hint                            : XviD
Duration                                 : 1h 8mn
Bit rate                                 : 1 141 Kbps
Width                                    : 720 pixels
Height                                   : 400 pixels
Display aspect ratio                     : 16:9
Frame rate                               : 23.976 fps
Color space                              : YUV
Chroma subsampling                       : 4:2:0
Bit depth                                : 8 bits
Scan type                                : Progressive
Compression mode                         : Lossy
Bits/(Pixel*Frame)                       : 0.165
Stream size                              : 557 MiB (75%)
Writing library                          : XviD 1.2.1 (UTC 2008-12-04)

Audio
ID                                       : 1
Format                                   : AC-3
Format/Info                              : Audio Coding 3
Mode extension                           : CM (complete main)
Format settings, Endianness              : Big
Codec ID                                 : 2000
Duration                                 : 1h 7mn
Bit rate mode                            : Constant
Bit rate                                 : 384 Kbps
Channel(s)                               : 6 channels
Channel positions                        : Front: L C R, Side: L R, LFE
Sampling rate                            : 48.0 KHz
Bit depth                                : 16 bits
Compression mode                         : Lossy
Stream size                              : 186 MiB (25%)
Alignment                                : Aligned on interleaves
Interleave, duration                     : 42 ms (1.01 video frame)
Interleave, preload duration             : 512 ms
Семпл: http://www.sendspace.com/file/f4ntxf

picpicpic
Для увеличения картинки щелкните мышкой по превью

Этот торрент недоступен для скачивания без регистрации, однако доступен по публичной magnet-ссылке (источники с публичных трекеров). Перед использованием ссылки прочтите, пожалуйста Пользовательское соглашение, а также как можно дольше оставайтесь на раздаче! Для того, чтобы скачать сам торрент-файл (который видит больше источников), а также для того, чтобы поблагодарить релизера, вам необходимо зарегистрироваться. Если регистрироваться лень - вы можете также попробовать скачать релиз по нашим партнерским ссылкам ниже.

[underverse.su].t22841.torrent
Трекер: Зарегистрирован   [ 27.12.2012 16:59 ]  

Статус: проверено (by garry at 27.12.2012 17:25)
Поблагодарили: 2 человека
Тип торрента: публичный - доступные источники с открытых трекеров: 
Размер: 748 MB (занимает 0,17 DVDR, для записи нужно 1 болванка DVDR/RW)
 
 
Похожие темы
Форум Тема Автор Торрент Отв. Посл. сооб.
Наше кино [DVDRip, Low-Res HDRip, и т.д.] Три мушкетера (Сергей Жигунов) [2013 г., приключения, DVDRip] Паукан
0 | 0

1 | 886

23

10.12.2013 20:01

Наше кино [DVDRip, Low-Res HDRip, и т.д.] Три мушкетера (Сергей Жигунов) [2013 г., приключения, DVDRip] Паукан
0 | 0

0 | 3095

234

10.12.2013 15:09

Наше кино [DVDRip, Low-Res HDRip, и т.д.] Три мушкетера (Сергей Жигунов) [2013 г., приключения, DVDRip-AVC] 90ytr90
3 | 0

0 | 448

30

11.12.2013 14:00

Наше кино [DVDRip, Low-Res HDRip, и т.д.] Три мушкетера (Сергей Жигунов) [2013 г., приключения, HDRip] Паукан
0 | 0

0 | 638

20

02.02.2014 19:37

xUSSR сериалы Три мушкетера / Серии: 1-10 из 10 (Сергей Жигунов) [2013 г., приключения, экранизация, SatRip] konopic
1 | 0

2 | 2161

62

20.12.2013 04:56

Зарубежные мультфильмы Три мушкетера / The Three Musketeers (Орландо Корради ) [2010 г., Приключения, семейный, мультфильм, DVDRip] МУХА~
0 | 1

0 | 1465

29

20.12.2010 09:17

Логические и Пазлы Три мушкетера. Д'Артаньян и 12 драгоценностей / The Three Musketeers: D'Artagnan and the 12 Jewels [2011 г., Квест, Логические, Я ищу] RUS kotiar
0 | 0

1 | 1345

30

24.10.2011 13:50

* Архив Три мушкетёра / The Three Musketeers ( Питер Дженнингс, Каролин Нив) [ 1986 г., Семейный, мультфильм, DVDRip] NMZ

1 | 1134

30.08.2010 00:06


Яндекс.Метрика powered by Sphinx


В Н И М А Н И Е
Сайт не распространяет и не хранит электронные версии произведений, а лишь бесплатно и без коммерческой выгоды (не требуя взамен платы,
SMS и т.д.) предоставляет доступ к создаваемому пользователями каталогу ссылок на торрент-файлы, которые содержат только списки хеш-сумм.
Убедительная просьба с жалобами обращаться напрямую к пользователю, разместившему торрент файл.

Вверх