Loading...
Error

В горах Восточного Саяна [2008 г., документальный, DVDRip]

Статистика раздачи
Размер:  4,45 GB   |    Зарегистрирован:  3 года 11 месяцев   |    Скачан:  29 раз
Сидов:  1  |  0 KB/s  ]   Личеров:  0  |  0 KB/s  ]

* - сиды/пиры с внешних источников

   
 
Автор Сообщение

KrimSKR Пол:Муж

26-Дек-2012 17:23

В горах Восточного Саяна


Год выпуска: 2008
Жанр: документальный
Страна: Россия
Режиссер: Александр Свешников
В ролях: Родные и близкие прославленного путешественника Григория Анисимовича Федосеева, жители Тафаларии
Сюжет фильма:
Это фильм-путешествие. Основная цель его – рассказать о загадочной и таинственной горной стране с красивым и звучным названием Тофалария. Край этот суров и прекрасен, люди, его населяющие, живут по законам тайги и стараются всеми силами сохранить её, хотя охота и является основным занятием этого народа. "Бери столько, сколько тебе надо сейчас для семьи, не бери лишнего. Пожадничаешь – сам себя накажешь" - так учил Александр Алексеевич Саганов, один из старейших жителей Тофаларии.
Если Вы будете искать Тофаларию на карте нашей необъятной России – без помощи знающего человека Вам не обойтись. Название "Тофалария" не значится ни на одной, даже самой подробной. Да, собственно, страна эта состоит из трёх посёлков в центре Восточного Саяна – Алыгджера, Верхней Гутары и Нерхи, и проживает в них чуть больше тысячи человек, лишь половина из которых является потомственными тофаларами (тофами).
По площади Тофалария чуть больше Бельгии, а по природной красоте такого второго места не найти на всём нашем земном шаре. И это не пустые слова. Все трудности заброски в Тофаларию, финансовые проблемы, длительное ожидание самолёта или вертолёта всвязи со сложными погодными условиями и т.д. с лихвой окупаются удивительным миром, в который Вы попадёте. Иными словами, об этом можно много говорить, но лучше один раз увидеть...
Качество видео: DVDRip

Продолжительность: 3 серии по 52-62 мин.
Формат: AVI
Видео: XviD, 720x416, 3614 kbps
Аудио: русский, MP3, 128 kbps

Код:

Формат : AVI
Формат/Информация : Audio Video Interleave
Размер файла : 1,37 Гбайт
Продолжительность : 52 м.
Общий поток : 3750 Кбит/сек
Программа кодирования : VirtualDubMod 1.5.4.1 (build 2178/release)
Библиотека кодирования : VirtualDubMod build 2178/release

Видео
Идентификатор : 0
Формат : MPEG-4 Visual
Профиль формата : Advanced Simple@L5
Параметр BVOP формата : Нет
Параметр QPel формата : Нет
Параметр GMC формата : Без точки перехода
Параметр матрицы формата : Выборочная
Идентификатор кодека : XVID
Идентификатор кодека/Подсказка : XviD
Продолжительность : 52 м.
Битрейт : 3614 Кбит/сек
Ширина : 720 пикселей
Высота : 416 пикселей
Соотношение сторон : 1,731
Частота кадров : 25,000 кадров/сек
Цветовое пространство : YUV
Субдискретизация насыщенности : 4:2:0
Битовая глубина : 8 бит
Тип развёртки : Прогрессивная
Метод сжатия : С потерями
Бит/(Пиксели*Кадры) : 0.483
Размер потока : 1,32 Гбайт (96%)
Библиотека кодирования : XviD 64

Аудио
Идентификатор : 1
Формат : MPEG Audio
Версия формата : Version 1
Профиль формата : Layer 3
Режим : Joint stereo
Расширение режима : MS Stereo
Идентификатор кодека : 55
Идентификатор кодека/Подсказка : MP3
Продолжительность : 52 м.
Вид битрейта : Постоянный
Битрейт : 128 Кбит/сек
Каналы : 2 канала
Частота : 48,0 КГц
Метод сжатия : С потерями
Размер потока : 47,8 Мбайт (3%)
Выравнивание : Соединение по промежуткам
Продолжительность промежутка : 80 мс. (2,00 видеокадра)
Время предзагрузки промежутка : 504 мс.
Библиотека кодирования : LAME3.98r
Настройки программы : -m j -V 4 -q 2 -lowpass 17 -b 128
picpicpic
Для увеличения картинки щелкните мышкой по превью

Этот торрент недоступен для скачивания без регистрации, однако доступен по публичной magnet-ссылке (источники с публичных трекеров). Перед использованием ссылки прочтите, пожалуйста Пользовательское соглашение, а также как можно дольше оставайтесь на раздаче! Для того, чтобы скачать сам торрент-файл (который видит больше источников), а также для того, чтобы поблагодарить релизера, вам необходимо зарегистрироваться. Если регистрироваться лень - вы можете также попробовать скачать релиз по нашим партнерским ссылкам ниже.

[underverse.su].t22830.torrent
Трекер: Зарегистрирован   [ 26.12.2012 17:23 ]  

Статус: проверено (by Garnett at 27.12.2012 13:21)
Поблагодарили: 2 человека
Тип торрента: публичный - доступные источники с открытых трекеров: 
Размер: 4,45 GB (занимает 1,02 DVDR, для записи нужно 2 болванки DVDR/RW)
 
 


Последний раз редактировалось: KrimSKR (27.12.2012 13:09), всего редактировалось 3 раз(а)

Garnett Пол:Муж

27-Дек-2012 08:11

Цитата:

В горах Восточного Саяна [2008 г., документальный фильм в трех частях , DVDRip] не требуется
Укажите аудиокодек

Saabr 

24-Фев-2013 04:06

Отличная раздача!Спасибо!!

Яндекс.Метрика powered by Sphinx


В Н И М А Н И Е
Сайт не распространяет и не хранит электронные версии произведений, а лишь бесплатно и без коммерческой выгоды (не требуя взамен платы,
SMS и т.д.) предоставляет доступ к создаваемому пользователями каталогу ссылок на торрент-файлы, которые содержат только списки хеш-сумм.
Убедительная просьба с жалобами обращаться напрямую к пользователю, разместившему торрент файл.

Вверх