Loading...
Error

Когда гаснет свет / When the Lights Went Out (Пэт Холден) [2012, ужасы, триллер, BDRip] VO (den904)

Статистика раздачи
Размер:  1,46 GB   |    Зарегистрирован:  3 года 11 месяцев   |    Скачан:  9 раз

Полного источника не было: 1 год 11 месяцев

Сидов:  0  |  0 KB/s  ]   Личеров:  0  |  0 KB/s  ]

* - сиды/пиры с внешних источников

   
 
Автор Сообщение

Garnett Пол:Муж

26-Дек-2012 12:46

Когда гаснет свет
When the Lights Went Out
«Происходящая в 1974 году и основанная на реальных событиях история об обычной йоркширской семье и злом духе, перевернувшем их жизнь вверх дном.»
Год выпуска: 2012
Страна: Великобритания
Жанр: ужасы, триллер
Продолжительность: 01:26:11
Перевод: Одноголосый закадровый den904
Субтитры: нет
Режиссёр: Пэт Холден / Pat Holden
В ролях: Кейт Эшфилд (Jenny), Никки Белл (Milkman), Клэр Кэттерсон (Clerk), Джейкоб Кларк (Jenkins), Ханна Клиффорд (Lucy), Мартин Компстон (Mr. Price), Морган Коннелл (Carol), Мэтт Коннор (Lute Player), Мэтт Коннор (Lute Player), Таша Коннор (Sally), Шон Кори (Woodwork Teacher), Питер Иган (Peter)
Описание: Муж, жена и девочка-подросток переезжают в новый дом, где их начинают преследовать призраки. .. кто они и чего они хотят? Сможет ли призрак развратного монаха заполучить их дочь?
Качество видео: BDRip [Спасибо GORENOISE]
Формат: AVI
Видео: XviD, 720x304 (2.35:1), 23.976 fps, ~1965 kbps, 0.374 bpp
Аудио: Русский: AC3, 48 kHz, 3/2 (L,C,R,l,r) + LFE ch, 16 bit, ~448 kbps
General
Complete name : When.the.Lights.Went.Out.2012.BDRip.XviD.AC3.VO.avi
Format : AVI
Format/Info : Audio Video Interleave
File size : 1.46 GiB
Duration : 1h 26mn
Overall bit rate : 2 422 Kbps
Writing application : VirtualDubMod 1.5.10.3 | www.virtualdub-fr.org || (build 2550/release)
Writing library : VirtualDubMod build 2550/release
Video
ID : 0
Format : MPEG-4 Visual
Format profile : Advanced Simple@L5
Format settings, BVOP : 1
Format settings, QPel : No
Format settings, GMC : No warppoints
Format settings, Matrix : Custom
Codec ID : XVID
Codec ID/Hint : XviD
Duration : 1h 26mn
Bit rate : 1 965 Kbps
Width : 720 pixels
Height : 304 pixels
Display aspect ratio : 2.35:1
Frame rate : 23.976 fps
Color space : YUV
Chroma subsampling : 4:2:0
Bit depth : 8 bits
Scan type : Progressive
Compression mode : Lossy
Bits/(Pixel*Frame) : 0.374
Stream size : 1.18 GiB (81%)
Writing library : XviD 65
Audio
ID : 1
Format : AC-3
Format/Info : Audio Coding 3
Mode extension : CM (complete main)
Codec ID : 2000
Duration : 1h 26mn
Bit rate mode : Constant
Bit rate : 448 Kbps
Channel(s) : 6 channels
Channel positions : Front: L C R, Side: L R, LFE
Sampling rate : 48.0 KHz
Bit depth : 16 bits
Compression mode : Lossy
Stream size : 276 MiB (18%)
Alignment : Split accross interleaves
Interleave, duration : 42 ms (1.00 video frame)
Interleave, preload duration : 500 ms

picpicpic

Этот торрент недоступен для скачивания без регистрации, однако доступен по публичной magnet-ссылке (источники с публичных трекеров). Перед использованием ссылки прочтите, пожалуйста Пользовательское соглашение, а также как можно дольше оставайтесь на раздаче! Для того, чтобы скачать сам торрент-файл (который видит больше источников), а также для того, чтобы поблагодарить релизера, вам необходимо зарегистрироваться. Если регистрироваться лень - вы можете также попробовать скачать релиз по нашим партнерским ссылкам ниже.

[underverse.su].t22819.torrent
Трекер: Зарегистрирован   [ 26.12.2012 12:46 ]  

Статус: проверено (by garry at 27.12.2012 16:03)
Поблагодарили: 1 человек
Тип торрента: публичный - доступные источники с открытых трекеров: 
Размер: 1,46 GB (занимает 1/3 DVDR, для записи нужно 1 болванка DVDR/RW)
 
 
Похожие темы
Форум Тема Автор Торрент Отв. Посл. сооб.
Зарубежное кино [DVDRip, Low-Res HDRip, и т.д.] Когда гаснет свет / When the Lights Went Out (Пэт Холден) [2012 г., ужасы, триллер, HDRip] VO (den904) 90ytr90
2 | 2

0 | 208

1

06.12.2012 20:34

Зарубежное кино [DVDRip, Low-Res HDRip, и т.д.] Когда гаснет свет / Te Zhong Jiu Yuan Ying Xiong (Чи-Кин Квок) [2014 г., боевик, драма, HDRip] AVO [Вадим Белов] Паукан
7 | 0

0 | 537

7

24.06.2014 06:42


Яндекс.Метрика powered by Sphinx


В Н И М А Н И Е
Сайт не распространяет и не хранит электронные версии произведений, а лишь бесплатно и без коммерческой выгоды (не требуя взамен платы,
SMS и т.д.) предоставляет доступ к создаваемому пользователями каталогу ссылок на торрент-файлы, которые содержат только списки хеш-сумм.
Убедительная просьба с жалобами обращаться напрямую к пользователю, разместившему торрент файл.

Вверх