Loading...
Error

Козел отпущения / The Scapegoat (Чарльз Старридж / Charles Sturridge) [2012, Драма, DVDRip] MVO [BaibaKo]

Статистика раздачи
Размер:  1,37 GB   |    Зарегистрирован:  3 года 11 месяцев   |    Скачан:  9 раз

Полного источника не было: 44 минуты

Сидов:  0  |  0 KB/s  ]   Личеров:  0  |  0 KB/s  ]

* - сиды/пиры с внешних источников

   
 
Автор Сообщение

Garnett Пол:Муж

26-Дек-2012 12:22

Козел отпущения / The Scapegoat
Страна: Великобритания
Жанр: Драма
Год выпуска: 2012
Продолжительность: 01:43:09
Перевод: Профессиональный (многоголосый закадровый) [BaibaKo]
Cубтитры: нет
Режиссер: Чарльз Старридж / Charles Sturridge
В ролях: Эндрю Скотт, Шеридан Смит, Джоди Мэй, Мэттью Риз, Айлин Эткинс, Фиби Николлс, Энтон Лессер, Пип Торренс, Сильви Тестю, Джулиан Уэдэм
Описание: В одном из лондонских пабов совершенно случайно встречаются аристократ, владелец стекольного завода Джонни Спэнс и потерявший работу учитель Джон Стэндинг. Возможно, обоюдного интереса никогда бы не возникло, если бы не одно поразительное обстоятельство - они похожи друг на друга, словно близнецы! Аристократу, уставшему от рутины руководства заводом и презирающего бесконечных своих родственников, захотелось хлебнуть свободы. И он делает всё, что бы следующее похмельное утро поменяло их местами. Никто даже подумать не мог, к каким последствиям приведет эта подмена! Экранизация классического одноименного романа Дафны дю Морье.
Сэмпл: http://multi-up.com/807749
Качество видео: DVDRip
Формат видео: AVI
Видео: 720x400 (1.80:1), 25 fps, XviD build 50 ~1698 kbps avg, 0.24 bit/pixel
Аудио: 48 kHz, AC3 Dolby Digital, 2/0 (L,R) ch, ~192 kbps
Общее
Полное имя : D:\Торенты\Kozel.otpushheniya.2012.P.DVDRip.avi
Формат : AVI
Формат/Информация : Audio Video Interleave
Размер файла : 1,37 Гбайт
Продолжительность : 1 ч. 43 м.
Общий поток : 1900 Кбит/сек
Название фильма : Kozel.otpushheniya.2012.P.DVDRip.IRONCLUB
Программа кодирования : VirtualDubModRus 1.5.10.2 (build 2542/release)
Формат оригинала/Имя : Movie
Видео
Идентификатор : 0
Формат : MPEG-4 Visual
Профиль формата : Advanced Simple@L5
Параметр BVOP формата : 2
Параметр QPel формата : Нет
Параметр GMC формата : Без точки перехода
Параметр матрицы формата : Default (H.263)
Идентификатор кодека : XVID
Идентификатор кодека/Подсказка : XviD
Продолжительность : 1 ч. 43 м.
Битрейт : 1699 Кбит/сек
Ширина : 720 пикселей
Высота : 400 пикселей
Соотношение сторон : 16:9
Частота кадров : 25,000 кадров/сек
Цветовое пространство : YUV
Субдискретизация насыщенности : 4:2:0
Битовая глубина : 8 бит
Тип развёртки : Прогрессивная
Метод сжатия : С потерями
Бит/(Пиксели*Кадры) : 0.236
Размер потока : 1,22 Гбайт (89%)
Библиотека кодирования : XviD 1.2.1 (UTC 2008-12-04)
Аудио
Идентификатор : 1
Формат : AC-3
Формат/Информация : Audio Coding 3
Расширение режима : CM (complete main)
Параметр Endianness формата : Big
Идентификатор кодека : 2000
Продолжительность : 1 ч. 43 м.
Вид битрейта : Постоянный
Битрейт : 192 Кбит/сек
Каналы : 2 канала
Расположение каналов : Front: L R
Частота : 48,0 КГц
Битовая глубина : 16 бит
Метод сжатия : С потерями
Размер потока : 142 Мбайт (10%)
Выравнивание : Разделение по промежуткам
Продолжительность промежутка : 40 мс. (1,00 видеокадр)
Время предзагрузки промежутка : 500 мс.
picpicpic

Этот торрент недоступен для скачивания без регистрации, однако доступен по публичной magnet-ссылке (источники с публичных трекеров). Перед использованием ссылки прочтите, пожалуйста Пользовательское соглашение, а также как можно дольше оставайтесь на раздаче! Для того, чтобы скачать сам торрент-файл (который видит больше источников), а также для того, чтобы поблагодарить релизера, вам необходимо зарегистрироваться. Если регистрироваться лень - вы можете также попробовать скачать релиз по нашим партнерским ссылкам ниже.

[underverse.su].t22812.torrent
Трекер: Зарегистрирован   [ 26.12.2012 12:22 ]  

Статус: проверено (by garry at 27.12.2012 17:43)
Поблагодарили: пока никто не поблагодарил...
Тип торрента: публичный - доступные источники с открытых трекеров: 
Размер: 1,37 GB (занимает 0,31 DVDR, для записи нужно 1 болванка DVDR/RW)
 
 
Похожие темы
Форум Тема Автор Торрент Отв. Посл. сооб.
Зарубежное кино [DVDRip, Low-Res HDRip, и т.д.] Козёл отпущения / The Scapegoat (Чарльз Старридж) [2012 г., драма, HDTVRip] DVO [студия "Райдо"] + Original RG NewCinema
1 | 0

0 | 708

6

29.10.2012 01:50

* Зарубежное кино [DVDRip, Low-Res HDRip, и т.д.] Козел отпущения / The Scapegoat (Чарльз Старридж) [2012, Драма, DVDRip] MVO [BaibaKo] Garnett

0 | 486

26.12.2012 12:34


Яндекс.Метрика powered by Sphinx


В Н И М А Н И Е
Сайт не распространяет и не хранит электронные версии произведений, а лишь бесплатно и без коммерческой выгоды (не требуя взамен платы,
SMS и т.д.) предоставляет доступ к создаваемому пользователями каталогу ссылок на торрент-файлы, которые содержат только списки хеш-сумм.
Убедительная просьба с жалобами обращаться напрямую к пользователю, разместившему торрент файл.

Вверх