Loading...
Error

Легавый [01-24 из 24] (Рустам Уразаев) [2012 г., детектив, DVB]

Статистика раздачи
Размер:  40,79 GB   |    Зарегистрирован:  3 года 11 месяцев   |    Скачан:  3 раза

Полного источника не было: 1 год 7 месяцев

Сидов:  0  |  0 KB/s  ]   Личеров:  0  |  0 KB/s  ]

* - сиды/пиры с внешних источников

   
 
Автор Сообщение

yuriy1920 Пол:Муж

25-Дек-2012 01:03

Легавый


Год выпуска: 2012
Жанр: детектив
Страна: Россия
Режиссер: Рустам Уразаев
В ролях: Эдуард Флёров, Михаил Павлик, Николай Козак, Оксана Гуляева, Анастасия Макеева, Елена Коровчук, Анатолий Кот, Игорь Филиппов, Александр Резалин, Михаил Горевой
Сюжет фильма:
Фронтовой разведчик, старший лейтенант Юрий Козырев, в последние дни войны попадает в плен и получает за это срок. В результате пересмотра дела в 1948-м, Козырев выходит из лагеря полностью оправданным и едет домой в родной рабочий городок под Москвой. Там его ждут перемены: отец пропал без вести на фронте, мать умерла, а любимая девушка — Лариса — вышла замуж за обеспеченного работника торговли Волынского.

Однажды на склад, куда Юрий устраивается работать охранником, совершается нападение. Главным подозреваемым по делу становится Козырев — на него начинается настоящая охота. Козырев скрывается от милиции и решает первым найти и обезвредить настоящего организатора ограбления. В награду за поимку преступника, сам Берия распоряжается назначить Козырева на должность инспектора уголовного розыска. Это назначение принесет ему новые расследования, и поставит его в рамки опасного треугольника — между бывшими товарищами по оружию, коллегами по службе и уголовниками…

Качество видео: DVB
Продолжительность: 00:44:40
Формат: mpg
Видео: MPEG-2 Video, 720x576, 5032 kbps
Аудио: русский, оригинал,MP2, 48.0 KHz, 2 ch, 192 Kbps, CBR

Код:

General
Complete name                    : E:\торрент\Легавый\Легавый.01.mpg
Format                           : MPEG-PS
File size                        : 1.70 GiB
Duration                         : 44mn 40s
Overall bit rate                 : 5 441 Kbps
Writing library                  : Sep  7 2012

Video
ID                               : 224 (0xE0)
Format                           : MPEG Video
Format version                   : Version 2
Format profile                   : Main@Main
Format settings, Matrix          : Default
Duration                         : 44mn 40s
Bit rate mode                    : Variable
Bit rate                         : 5 033 Kbps
Nominal bit rate                 : 15.0 Mbps
Width                            : 720 pixels
Height                           : 576 pixels
Display aspect ratio             : 4/3
Frame rate                       : 25.000 fps
Standard                         : PAL
Colorimetry                      : 4:2:0
Scan type                        : Interlaced
Scan order                       : Top Field First
Bits/(Pixel*Frame)               : 0.485
Stream size                      : 1.57 GiB (93%)
Writing library                  : Sep  7 2012

Audio
ID                               : 192 (0xC0)
Format                           : MPEG Audio
Format version                   : Version 1
Format profile                   : Layer 2
Duration                         : 44mn 40s
Bit rate mode                    : Constant
Bit rate                         : 192 Kbps
Channel(s)                       : 2 channels
Sampling rate                    : 48.0 KHz
Resolution                       : 16 bits
Video delay                      : -40ms
Stream size                      : 61.3 MiB (4%)

Menu
Format                           : DVD-Video

picpicpic
Для увеличения картинки щелкните мышкой по превью

Этот торрент недоступен для скачивания без регистрации, однако доступен по публичной magnet-ссылке (источники с публичных трекеров). Перед использованием ссылки прочтите, пожалуйста Пользовательское соглашение, а также как можно дольше оставайтесь на раздаче! Для того, чтобы скачать сам торрент-файл (который видит больше источников), а также для того, чтобы поблагодарить релизера, вам необходимо зарегистрироваться. Если регистрироваться лень - вы можете также попробовать скачать релиз по нашим партнерским ссылкам ниже.

[underverse.su].t22914.torrent
Трекер: Зарегистрирован   [ 30.12.2012 00:29 ]  

Статус: проверено (by Garnett at 30.12.2012 10:51)
Поблагодарили: 1 человек
Тип торрента: публичный - доступные источники с открытых трекеров: 
Размер: 40,79 GB (занимает 9,32 DVDR, для записи нужно 10 болванок DVDR/RW)
 
 


Последний раз редактировалось: yuriy1920 (30.12.2012 00:28), всего редактировалось 5 раз(а)

yuriy1920 Пол:Муж

25-Дек-2012 23:02

Добавлены 5-8 серии.

Garnett Пол:Муж

26-Дек-2012 14:38

Цитата:

Аудио: русский, оригинал, MP1 2.0, 192 kbps

Цитата:

Format profile : Layer 2
MP2

yuriy1920 Пол:Муж

28-Дек-2012 00:16

Добавлены 9-16 серии.

Garnett Пол:Муж

28-Дек-2012 11:18

Скриншоты не соответствуют размерам кадра

yuriy1920 Пол:Муж

29-Дек-2012 18:07

Добавлены 17-20 серии.

yuriy1920 Пол:Муж

30-Дек-2012 00:31

Добавлены 21-24 серии.

Яндекс.Метрика powered by Sphinx


В Н И М А Н И Е
Сайт не распространяет и не хранит электронные версии произведений, а лишь бесплатно и без коммерческой выгоды (не требуя взамен платы,
SMS и т.д.) предоставляет доступ к создаваемому пользователями каталогу ссылок на торрент-файлы, которые содержат только списки хеш-сумм.
Убедительная просьба с жалобами обращаться напрямую к пользователю, разместившему торрент файл.

Вверх