Loading...
Error

Несколько счастливцев / Happy Few / Four Lovers (Антони Кордье) [2010, мелодрама, DVDRip] DVO

Статистика раздачи
Размер:  1,37 GB   |    Зарегистрирован:  3 года 11 месяцев   |    Скачан:  3 раза

Полного источника не было: 2 года

Сидов:  0  |  0 KB/s  ]   Личеров:  0  |  0 KB/s  ]

* - сиды/пиры с внешних источников

   
 
Автор Сообщение

Garnett Пол:Муж

24-Дек-2012 18:54

Несколько счастливцев / Happy Few / Four Lovers
Страна: Франция
Жанр: мелодрама
Год выпуска: 2010
Продолжительность: 01:40:15
Перевод: Профессиональный (двухголосый) [студия Elrom]
Субтиры: нет
Режиссер: Антони Кордье / Antony Cordier
В ролях: Марина Фоис , Элоди Буше , Рошди Зем , Николя Дювошель , Жан-Франсуа Стевенен , Алексия Стреси , Бланш Гардин , Женевьев Мниш , Филипп Пеймбланк , Наоми Феррейра , Илона Калу , Фердинанд Леду
Описание: Эротическая мелодрама о двух парах, сошедшихся вместе и живущих "квартетом". Фильм о сложных отношениях, взаимной любви и об обязательно возникающих сложностях, когда чувства начинают переплёскиваться через край...
Качество: DVDRip (Исходник неизвестен)
Контейнер: AVI
Видео: XviD, 720x304 (2.35:1), 1754 kbps, 25 fps, 0,321 bpp
Аудио: AC3 / 2.0 / 48 kHz / 192 kbps / 16 bit
General
Complete name : F:\Neskol_ko_schastlivcev.2010.P_DVDRip.avi
Format : AVI
Format/Info : Audio Video Interleave
File size : 1.37 GiB
Duration : 1h 40mn
Overall bit rate : 1 956 Kbps
Writing application : VirtualDubMod 1.5.10.2 (build 2540/release)
Writing library : VirtualDubMod build 2540/release
Video
ID : 0
Format : MPEG-4 Visual
Format profile : Simple@L5
Format settings, BVOP : No
Format settings, QPel : No
Format settings, GMC : No warppoints
Format settings, Matrix : Default (H.263)
Codec ID : XVID
Codec ID/Hint : XviD
Duration : 1h 40mn
Bit rate : 1 754 Kbps
Width : 720 pixels
Height : 304 pixels
Display aspect ratio : 2.35:1
Frame rate : 25.000 fps
Color space : YUV
Chroma subsampling : 4:2:0
Bit depth : 8 bits
Scan type : Progressive
Compression mode : Lossy
Bits/(Pixel*Frame) : 0.321
Stream size : 1.23 GiB (90%)
Writing library : XviD 64
Audio
ID : 1
Format : AC-3
Format/Info : Audio Coding 3
Mode extension : CM (complete main)
Codec ID : 2000
Duration : 1h 40mn
Bit rate mode : Constant
Bit rate : 192 Kbps
Channel(s) : 2 channels
Channel positions : Front: L R
Sampling rate : 48.0 KHz
Bit depth : 16 bits
Compression mode : Lossy
Stream size : 138 MiB (10%)
Alignment : Split accross interleaves
Interleave, duration : 40 ms (1.00 video frame)
Interleave, preload duration : 500 ms
picpicpic

Этот торрент недоступен для скачивания без регистрации, однако доступен по публичной magnet-ссылке (источники с публичных трекеров). Перед использованием ссылки прочтите, пожалуйста Пользовательское соглашение, а также как можно дольше оставайтесь на раздаче! Для того, чтобы скачать сам торрент-файл (который видит больше источников), а также для того, чтобы поблагодарить релизера, вам необходимо зарегистрироваться. Если регистрироваться лень - вы можете также попробовать скачать релиз по нашим партнерским ссылкам ниже.

[underverse.su].t22756.torrent
Трекер: Зарегистрирован   [ 24.12.2012 18:54 ]  

Статус: проверено (by garry at 24.12.2012 20:40)
Поблагодарили: пока никто не поблагодарил...
Тип торрента: публичный - доступные источники с открытых трекеров: 
Размер: 1,37 GB (занимает 0,31 DVDR, для записи нужно 1 болванка DVDR/RW)
 
 
Похожие темы
Форум Тема Автор Торрент Отв. Посл. сооб.
T Зарубежное кино [DVDRip, Low-Res HDRip, и т.д.] Несколько женщин / Certain Women (Келли Райхардт) [2016 г., драма, WEB-DLRip] MVO makkol
4 | 0

0 | 117

7

16.10.2016 14:48

T Зарубежное кино [HDDVDRip / BDRip / WEB-DL / HDTV 1080/720р] Несколько женщин / Certain Women (Келли Райхардт) [2016 г., драма, WEB-DL 720p] MVO makkol
3 | 1

0 | 132

4

16.10.2016 14:59


Яндекс.Метрика powered by Sphinx


В Н И М А Н И Е
Сайт не распространяет и не хранит электронные версии произведений, а лишь бесплатно и без коммерческой выгоды (не требуя взамен платы,
SMS и т.д.) предоставляет доступ к создаваемому пользователями каталогу ссылок на торрент-файлы, которые содержат только списки хеш-сумм.
Убедительная просьба с жалобами обращаться напрямую к пользователю, разместившему торрент файл.

Вверх